Макс / Max (Боаз Якин / Boaz Yakin) [2015, США, приключения, семейный, BDRip 720p] MVO (iTunes) + Sub Rus, Eng + Original Eng

Ответить на тему
 
Автор Сообщение

user ®

Стаж: 7 лет 7 месяцев

Сообщений: 20008

Пост Пост: #1 от 14-Окт-2015 19:42

[Цитировать]

Макс / Max
Страна: США
Студия: Metro-Goldwyn-Mayer (MGM), Sunswept Entertainment, Warner Bros
Жанр: приключения, семейный
Год выпуска: 2015
Продолжительность: 01:50:57
Перевод: Профессиональный (многоголосый закадровый) iTunes
Cубтитры: Rus, Eng
Оригинальная аудиодорожка: английский
Режиссер: Боаз Якин / Boaz Yakin
В ролях: Томас Хейден Чёрч, Джош Уиггинс, Люк Клеинтенк, Лорен Грэм, Робби Амелл, Джей Эрнандес Оуэн, Харн Джозеф, Джулиан Сория
Описание: История о собаке по кличке Макс. За годы, проведенные в Афганистане, он спас десятки солдат. Но однажды случилось так, что Макс сам попал под пулю. Сумев выжить, пес уже не мог продолжать свою службу, потому его отдали в семью одного из тех солдат, что он также когда-то спас. Каждому военному нелегко вернуться к обычной жизни, Макс тоже не стал исключением, хотя и вряд ли помнил, каково это. Теперь жизнь пса абсолютно изменилась, как и он сам. Сможет ли герой привыкнуть к быту без войны?

Тип релиза: BDRip 720p / Tonik
Контейнер: MKV
Видео: MPEG-4 AVC, 6323 Кбит/с, 1280x534, 23,976 fps
Аудио: Rus, AC3, 384 kb/s (6 ch), 48 kHz
Аудио 2: Eng, DTS, 1510 kb/s (6 ch), 48 kHz
Формат субтитров: softsub (SRT)
MediaInfo
x264 [info]: frame I:1210 Avg QP:15.13 size:141946
x264 [info]: frame P:42266 Avg QP:17.15 size: 60182
x264 [info]: frame B:116154 Avg QP:18.42 size: 23107
x264 [info]: consecutive B-frames: 5.4% 6.7% 8.8% 26.0% 16.5% 27.6% 4.6% 2.1% 1.0% 0.6% 0.7%
Format : Matroska
Format version : Version 4 / Version 2
File size : 6.50 GiB
Duration : 1h 50mn
Overall bit rate : 8 383 Kbps
Movie name : Макс. (Tonik)
Encoded date : UTC 2015-10-12 16:44:17
Writing application : mkvmerge v7.1.0 ('Good Love') 64bit built on Jul 27 2014 13:06:55
Writing library : libebml v1.3.0 + libmatroska v1.4.1
DURATION : 01:49:43.643000000
NUMBER_OF_FRAMES : 1261
NUMBER_OF_BYTES : 45157
_STATISTICS_WRITING_APP : mkvmerge v7.1.0 ('Good Love') 64bit built on Jul 27 2014 13:06:55
_STATISTICS_WRITING_DATE_UTC : 2015-10-12 16:44:17
_STATISTICS_TAGS : BPS DURATION NUMBER_OF_FRAMES NUMBER_OF_BYTES
Video
ID : 1
Format : AVC
Format/Info : Advanced Video Codec
Format profile : High@L4.1
Format settings, CABAC : Yes
Format settings, ReFrames : 12 frames
Codec ID : V_MPEG4/ISO/AVC
Duration : 1h 50mn
Bit rate : 6 323 Kbps
Width : 1 280 pixels
Height : 534 pixels
Display aspect ratio : 2.40:1
Frame rate mode : Constant
Frame rate : 23.976 fps
Color space : YUV
Chroma subsampling : 4:2:0
Bit depth : 8 bits
Scan type : Progressive
Bits/(Pixel*Frame) : 0.386
Stream size : 4.90 GiB (75%)
Title : Tonik
Writing library : x264 core 148 r2597 e86f3a1
Encoding settings : cabac=1 / ref=12 / deblock=1:-3:-3 / analyse=0x3:0x133 / me=umh / subme=11 / psy=1 / psy_rd=1.00:0.00 / mixed_ref=1 / me_range=32 / chroma_me=1 / trellis=2 / 8x8dct=1 / cqm=0 / deadzone=21,11 / fast_pskip=0 / chroma_qp_offset=-2 / threads=12 / lookahead_threads=3 / sliced_threads=0 / nr=0 / decimate=0 / interlaced=0 / bluray_compat=0 / constrained_intra=0 / bframes=10 / b_pyramid=2 / b_adapt=2 / b_bias=0 / direct=3 / weightb=1 / open_gop=0 / weightp=2 / keyint=250 / keyint_min=23 / scenecut=40 / intra_refresh=0 / rc=crf / mbtree=0 / crf=16.0 / qcomp=0.60 / qpmin=0 / qpmax=69 / qpstep=4 / ip_ratio=1.40 / pb_ratio=1.30 / aq=1:1.00
Language : English
Default : Yes
Forced : No
DURATION : 01:50:57.908000000
NUMBER_OF_FRAMES : 159630
NUMBER_OF_BYTES : 5399410233
_STATISTICS_WRITING_APP : mkvmerge v7.1.0 ('Good Love') 64bit built on Jul 27 2014 13:06:55
_STATISTICS_WRITING_DATE_UTC : 2015-10-12 16:44:17
_STATISTICS_TAGS : BPS DURATION NUMBER_OF_FRAMES NUMBER_OF_BYTES
Audio #1
ID : 2
Format : AC-3
Format/Info : Audio Coding 3
Mode extension : CM (complete main)
Format settings, Endianness : Big
Codec ID : A_AC3
Duration : 1h 50mn
Bit rate mode : Constant
Bit rate : 384 Kbps
Channel(s) : 6 channels
Channel positions : Front: L C R, Side: L R, LFE
Sampling rate : 48.0 KHz
Bit depth : 16 bits
Compression mode : Lossy
Stream size : 305 MiB (5%)
Language : Russian
Default : Yes
Forced : No
Audio #2
ID : 3
Format : DTS
Format/Info : Digital Theater Systems
Mode : 16
Format settings, Endianness : Big
Codec ID : A_DTS
Duration : 1h 50mn
Bit rate mode : Constant
Bit rate : 1 509 Kbps
Channel(s) : 6 channels
Channel positions : Front: L C R, Side: L R, LFE
Sampling rate : 48.0 KHz
Bit depth : 16 bits
Compression mode : Lossy
Stream size : 1.17 GiB (18%)
Language : English
Default : No
Forced : No
Text #1
ID : 4
Format : UTF-8
Codec ID : S_TEXT/UTF8
Codec ID/Info : UTF-8 Plain Text
Title : Forced
Language : Russian
Default : Yes
Forced : No
Text #2
ID : 5
Format : UTF-8
Codec ID : S_TEXT/UTF8
Codec ID/Info : UTF-8 Plain Text
Language : Russian
Default : No
Forced : No
Text #3
ID : 6
Format : UTF-8
Codec ID : S_TEXT/UTF8
Codec ID/Info : UTF-8 Plain Text
Language : English
Default : No
Forced : No
Menu
00:00:00.000 : :Chapter 01
00:09:15.763 : :Chapter 02
00:20:30.438 : :Chapter 03
00:31:01.859 : :Chapter 04
00:40:28.384 : :Chapter 05
00:50:32.737 : :Chapter 06
00:59:04.541 : :Chapter 07
01:09:11.854 : :Chapter 08
01:20:37.082 : :Chapter 09
01:30:08.737 : :Chapter 10
01:40:27.270 : :Chapter 11
01:44:01.734 : :Chapter 12
Скриншоты
Скачать

Скачать торрент!

Как скачивать? · Что такое торрент? · Рейтинг и ограничения

Сайт не распространяет и не хранит электронные версии произведений, а лишь предоставляет доступ к создаваемому пользователями каталогу ссылок на торрент-файлы, которые содержат только списки хеш-сумм

[Профиль] [ЛС]
Показать сообщения:    
Ответить на тему

Текущее время: Сегодня 11:39

Часовой пояс: GMT + 4



Вы не можете начинать темы
Вы не можете отвечать на сообщения
Вы не можете редактировать свои сообщения
Вы не можете удалять свои сообщения
Вы не можете голосовать в опросах
Вы не можете прикреплять файлы к сообщениям
Вы не можете скачивать файлы