Тук Тук / Кто там? / Knock Knock (Элай Рот / Eli Roth) [2015, Чили, США, триллер, ужасы, WEB-DL 720p] VO (Стасюк) + Sub Eng + Original Eng

Ответить на тему
 
Автор Сообщение

user ®

Стаж: 7 лет 7 месяцев

Сообщений: 20008

Пост Пост: #1 от 14-Окт-2015 19:42

[Цитировать]

Тук Тук / Knock Knock / Кто там?
Страна: Чили, США
Жанр: Триллер, ужасы
Год выпуска: 2015
Продолжительность: 01:39:51
Перевод: Одноголосый закадровый Дмитрий Стасюк
Cубтитры: английские
Оригинальная аудиодорожка: английский
Режиссер: Элай Рот / Eli Roth
В ролях: Киану Ривз, Лоренца Иззо, Ана де Армас, Игнасия Алламанд, Аарон Барнс, Коллин Кэмп
Описание: Отправив семью за город, архитектор Эван остается на выходных дома один доделывать срочный проект. К нему стучатся две милые молодые девушки лет двадцати, насквозь промокшие и заблудившиеся. Эван не мог предположить, что протянутая рука помощи обернется для него чередой изощренных издевательств, изысканных пыток и медленного садистского уничтожения семьи…
Сэмпл: http://multi-up.com/1071007
Качество видео: WEB-DL 720p
Формат видео: MKV
Видео: AVC, 1280x534, 2.40:1, 23.976 fps, 3968 Kbps
Аудио: AC-3, 48 KHz, 384 Kbps, 5.1 ch, [English]
Аудио 2: AC-3, 48 KHz, 448 Kbps, 5.1 ch, [Russian]
Формат субтитров: softsub (SRT)

MediaInfo
General
Unique ID : 67011887227282168268580707121103053398 (0x326A05204C85ACDBAF95B900EF932256)
Complete name : C:\Users\wintermute\Downloads\v\Knock-knock_ru_by_wintermute.mkv
Format : Matroska
Format version : Version 2
File size : 3.41 GiB
Duration : 1h 39mn
Overall bit rate : 4 897 Kbps
Movie name : Knock Knock
Encoded date : UTC 2015-10-12 12:15:38
Writing application : mkvmerge v4.3.0 ('Escape from the Island') built on Sep 6 2010 20:51:36
Writing library : libebml v1.0.0 + libmatroska v1.0.0
Video
ID : 1
Format : AVC
Format/Info : Advanced Video Codec
Format profile : Main@L3.1
Format settings, CABAC : No
Format settings, ReFrames : 2 frames
Muxing mode : Header stripping
Codec ID : V_MPEG4/ISO/AVC
Duration : 1h 39mn
Bit rate : 3 968 Kbps
Width : 1 280 pixels
Height : 534 pixels
Display aspect ratio : 2.40:1
Frame rate mode : Constant
Frame rate : 23.976 fps
Color space : YUV
Chroma subsampling : 4:2:0
Bit depth : 8 bits
Scan type : Progressive
Bits/(Pixel*Frame) : 0.242
Stream size : 2.77 GiB (81%)
Language : English
Default : Yes
Forced : No
Color range : Limited
Color primaries : BT.709
Transfer characteristics : BT.709
Matrix coefficients : BT.709
Audio #1
ID : 2
Format : AC-3
Format/Info : Audio Coding 3
Mode extension : CM (complete main)
Format settings, Endianness : Big
Muxing mode : Header stripping
Codec ID : A_AC3
Duration : 1h 39mn
Bit rate mode : Constant
Bit rate : 384 Kbps
Channel(s) : 6 channels
Channel positions : Front: L C R, Side: L R, LFE
Sampling rate : 48.0 KHz
Compression mode : Lossy
Stream size : 274 MiB (8%)
Title : Original
Language : English
Default : No
Forced : No
Audio #2
ID : 3
Format : AC-3
Format/Info : Audio Coding 3
Mode extension : CM (complete main)
Format settings, Endianness : Big
Muxing mode : Header stripping
Codec ID : A_AC3
Duration : 1h 39mn
Bit rate mode : Constant
Bit rate : 448 Kbps
Channel(s) : 6 channels
Channel positions : Front: L C R, Side: L R, LFE
Sampling rate : 48.0 KHz
Compression mode : Lossy
Stream size : 320 MiB (9%)
Title : Wintermute
Language : Russian
Default : Yes
Forced : No
Text
ID : 4
Format : UTF-8
Codec ID : S_TEXT/UTF8
Codec ID/Info : UTF-8 Plain Text
Language : English
Default : No
Forced : No
Скриншот c названием фильма Скриншоты
Скачать

Скачать торрент!

Как скачивать? · Что такое торрент? · Рейтинг и ограничения

Сайт не распространяет и не хранит электронные версии произведений, а лишь предоставляет доступ к создаваемому пользователями каталогу ссылок на торрент-файлы, которые содержат только списки хеш-сумм

[Профиль] [ЛС]
Показать сообщения:    
Ответить на тему

Текущее время: Сегодня 18:16

Часовой пояс: GMT + 4



Вы не можете начинать темы
Вы не можете отвечать на сообщения
Вы не можете редактировать свои сообщения
Вы не можете удалять свои сообщения
Вы не можете голосовать в опросах
Вы не можете прикреплять файлы к сообщениям
Вы не можете скачивать файлы