Восход «Черной луны» / Black Moon Rising (Харли Коклисс / Harley Cokeliss) [1986, США, фантастика, боевик, триллер, BDRip 720p] DVO (Амальгама) + 2x MVO (ТК Россия, Нева-1) + AVO (Визгунов) + VO (Гаевский) + Original (Eng) + Sub (Rus, Eng)

Ответить на тему
 
Автор Сообщение

user ®

Стаж: 7 лет 7 месяцев

Сообщений: 20008

Пост Пост: #1 от 14-Окт-2015 16:36

[Цитировать]

Восход «Черной луны» / Black Moon Rising- Страна: США
Жанр: фантастика, боевик, триллер
Год выпуска: 1986
Продолжительность: 01:39:30-Перевод №1: Профессиональный (двухголосый закадровый) - Амальгама
Перевод №2: Профессиональный (многоголосый закадровый) - ТК Россия
Перевод №3: Профессиональный (многоголосый закадровый) - Нева-1
Перевод №4: Авторский (одноголосый закадровый) - С. Визгунов
Перевод №5: Одноголосый закадровый - Е. Гаевский
Оригинальная аудиодорожка: English
Cубтитры: Русские (полные), English (full + full SDH)
Навигация по главам: присутствует - 8 глав-Режиссер: Харли Коклисс / Harley Cokeliss
В ролях: Томми Ли Джонс, Линда Хэмилтон, Роберт Вон, Ричард Джэкел, Ли Винг, Бубба Смит, Дэн Шор, Уильям Сэндерсон, Кинен Уинн, Ник Кассаветис-Описание: История, которая начинается с угона сверхмощного автомобиля с реактивным двигателем — «Черная луна», становится еще более запутанной, когда к разборкам между «специалистами» по незаконной транспортировке, гангстерами и агентами правительственных спецслужб подключается расследование, проводимое ФБР.-
Download sample-Качество видео: BDRip 720p | исх. Blu-ray [Custom] 1080p - thx: AnryV
Формат: MKV-Видео: 1 280x720 (16:9), 24.000 fps, H.264 ~8 400 kbps avg, 0.368 bit/pixel
Аудио №1: 48.0 kHz, AC3 Dolby Digital, 3/2 (L,C,R,l,r) + LFE ch, ~448 kbps | Профессиональный (двухголосый закадровый) - Амальгама
Аудио №2: 48.0 kHz, AC3 Dolby Digital, 2/0 (L,R), ~192 kbps | Профессиональный (многоголосый закадровый) - ТК Россия
Аудио №3: 48.0 kHz, AC3 Dolby Digital, 2/0 (L,R), ~192 kbps | Профессиональный (многоголосый закадровый) - Нева-1
Аудио №4: 48.0 kHz, AC3 Dolby Digital, 3/2 (L,C,R,l,r) + LFE ch, ~448 kbps | Авторский (одноголосый закадровый) - С. Визгунов
Аудио №5: 48.0 kHz, AC3 Dolby Digital, 3/2 (L,C,R,l,r) + LFE ch, ~448 kbps | Авторский (одноголосый закадровый) - Е. Гаевский
Аудио №6: 48.0 kHz, AC3 Dolby Digital, 3/2 (L,C,R,l,r) + LFE ch, ~448 kbps | English
Субтитры №1: Русские (полные) | *.srt
Субтитры №2: English (full) | *.srt
Субтитры №3: English (full SDH) | *.srt-

MediaInfo
General
Unique ID : 181759660925185451013074421928494260791 (0x88BDA32A66D5829FB3C205BED85A6237)
Complete name : D:\Фильмы\Рипы\Black Moon Rising.1986.BDRip 720p.eFK tRuAVC.mkv
Format : Matroska
Format version : Version 4 / Version 2
File size : 7.32 GiB
Duration : 1h 39mn
Overall bit rate : 10.5 Mbps
Movie name : Восход «Черной луны» / Black Moon Rising (1986) - Release for rutracker
Encoded date : UTC 2015-10-11 07:55:43
Writing application : mkvmerge v7.6.0 ('Garden of Dreams') 64bit built on Feb 8 2015 13:04:34
Writing library : libebml v1.3.1 + libmatroska v1.4.2
Attachements : Cover.jpg
DURATION : 01:34:33.330000000
NUMBER_OF_FRAMES : 717
NUMBER_OF_BYTES : 25871
_STATISTICS_WRITING_APP : mkvmerge v7.6.0 ('Garden of Dreams') 64bit built on Feb 8 2015 13:04:34
_STATISTICS_WRITING_DATE_UT : 2015-10-11 07:55:43
_STATISTICS_TAGS : BPS DURATION NUMBER_OF_FRAMES NUMBER_OF_BYTES
Video
ID : 1
Format : AVC
Format/Info : Advanced Video Codec
Format profile : High@L4.1
Format settings, CABAC : Yes
Format settings, ReFrames : 8 frames
Codec ID : V_MPEG4/ISO/AVC
Duration : 1h 39mn
Bit rate : 8 150 Kbps
Width : 1 280 pixels
Height : 720 pixels
Display aspect ratio : 16:9
Frame rate mode : Constant
Frame rate : 24.000 fps
Color space : YUV
Chroma subsampling : 4:2:0
Bit depth : 8 bits
Scan type : Progressive
Bits/(Pixel*Frame) : 0.368
Stream size : 5.66 GiB (77%)
Title : eFK tRuAVC
Writing library : x264 core 148 r2597kMod e86f3a1
Encoding settings : cabac=1 / ref=8 / deblock=1:-3:-3 / analyse=0x3:0x113 / me=umh / subme=11 / psy=1 / fade_compensate=0.00 / psy_rd=0.95:0.05 / mixed_ref=1 / me_range=48 / chroma_me=1 / trellis=2 / 8x8dct=1 / cqm=0 / deadzone=21,11 / fast_pskip=0 / chroma_qp_offset=-3 / threads=12 / lookahead_threads=3 / sliced_threads=0 / nr=0 / decimate=1 / interlaced=0 / bluray_compat=0 / constrained_intra=0 / fgo=0 / bframes=16 / b_pyramid=2 / b_adapt=2 / b_bias=0 / direct=3 / weightb=1 / open_gop=0 / weightp=2 / keyint=250 / keyint_min=24 / scenecut=40 / intra_refresh=0 / rc_lookahead=60 / rc=crf / mbtree=0 / crf=18.5000 / qcomp=0.70 / qpmin=0 / qpmax=69 / qpstep=4 / vbv_maxrate=62500 / vbv_bufsize=78125 / crf_max=0.0 / nal_hrd=none / filler=0 / ip_ratio=1.40 / pb_ratio=1.30 / aq=3:0.95
Language : English
Default : Yes
Forced : No
Color range : Limited
Color primaries : BT.709
Transfer characteristics : BT.709
Matrix coefficients : BT.709
DURATION : 01:39:30.459000000
NUMBER_OF_FRAMES : 143291
NUMBER_OF_BYTES : 6236568646
_STATISTICS_WRITING_APP : mkvmerge v7.6.0 ('Garden of Dreams') 64bit built on Feb 8 2015 13:04:34
_STATISTICS_WRITING_DATE_UT : 2015-10-11 07:55:43
_STATISTICS_TAGS : BPS DURATION NUMBER_OF_FRAMES NUMBER_OF_BYTES
Audio #1
ID : 2
Format : AC-3
Format/Info : Audio Coding 3
Mode extension : CM (complete main)
Format settings, Endianness : Big
Codec ID : A_AC3
Duration : 1h 39mn
Bit rate mode : Constant
Bit rate : 448 Kbps
Channel(s) : 6 channels
Channel positions : Front: L C R, Side: L R, LFE
Sampling rate : 48.0 KHz
Compression mode : Lossy
Stream size : 319 MiB (4%)
Title : DVO - Амальгама
Language : Russian
Default : Yes
Forced : No
Audio #2
ID : 3
Format : AC-3
Format/Info : Audio Coding 3
Mode extension : CM (complete main)
Format settings, Endianness : Big
Codec ID : A_AC3
Duration : 1h 39mn
Bit rate mode : Constant
Bit rate : 192 Kbps
Channel(s) : 2 channels
Channel positions : Front: L R
Sampling rate : 48.0 KHz
Compression mode : Lossy
Stream size : 137 MiB (2%)
Title : MVO - ТК Россия
Language : Russian
Default : No
Forced : No
Audio #3
ID : 4
Format : AC-3
Format/Info : Audio Coding 3
Mode extension : CM (complete main)
Format settings, Endianness : Big
Codec ID : A_AC3
Duration : 1h 39mn
Bit rate mode : Constant
Bit rate : 192 Kbps
Channel(s) : 2 channels
Channel positions : Front: L R
Sampling rate : 48.0 KHz
Compression mode : Lossy
Stream size : 137 MiB (2%)
Title : MVO - Нева-1
Language : Russian
Default : No
Forced : No
Audio #4
ID : 5
Format : AC-3
Format/Info : Audio Coding 3
Mode extension : CM (complete main)
Format settings, Endianness : Big
Codec ID : A_AC3
Duration : 1h 39mn
Bit rate mode : Constant
Bit rate : 448 Kbps
Channel(s) : 6 channels
Channel positions : Front: L C R, Side: L R, LFE
Sampling rate : 48.0 KHz
Compression mode : Lossy
Stream size : 319 MiB (4%)
Title : AVO - С. Визгунов
Language : Russian
Default : No
Forced : No
Audio #5
ID : 6
Format : AC-3
Format/Info : Audio Coding 3
Mode extension : CM (complete main)
Format settings, Endianness : Big
Codec ID : A_AC3
Duration : 1h 39mn
Bit rate mode : Constant
Bit rate : 448 Kbps
Channel(s) : 6 channels
Channel positions : Front: L C R, Side: L R, LFE
Sampling rate : 48.0 KHz
Compression mode : Lossy
Stream size : 319 MiB (4%)
Title : AVO - Е. Гаевский
Language : Russian
Default : No
Forced : No
Audio #6
ID : 7
Format : AC-3
Format/Info : Audio Coding 3
Mode extension : CM (complete main)
Format settings, Endianness : Big
Codec ID : A_AC3
Duration : 1h 39mn
Bit rate mode : Constant
Bit rate : 448 Kbps
Channel(s) : 6 channels
Channel positions : Front: L C R, Side: L R, LFE
Sampling rate : 48.0 KHz
Compression mode : Lossy
Stream size : 319 MiB (4%)
Language : English
Default : No
Forced : No
Text #1
ID : 8
Format : UTF-8
Codec ID : S_TEXT/UTF8
Codec ID/Info : UTF-8 Plain Text
Title : полные
Language : Russian
Default : No
Forced : No
Text #2
ID : 9
Format : UTF-8
Codec ID : S_TEXT/UTF8
Codec ID/Info : UTF-8 Plain Text
Title : full
Language : English
Default : No
Forced : No
Text #3
ID : 10
Format : UTF-8
Codec ID : S_TEXT/UTF8
Codec ID/Info : UTF-8 Plain Text
Title : full SDH
Language : English
Default : No
Forced : No
Menu
00:00:00.000 : :Chapter 01
00:15:00.750 : :Chapter 02
00:29:21.083 : :Chapter 03
00:45:12.666 : :Chapter 04
00:59:50.625 : :Chapter 05
01:14:50.958 : :Chapter 06
01:24:05.375 : :Chapter 07
01:35:56.541 : :Chapter 08
x264 log
x264 [info]: frame I:995 Avg QP:16.56 size:140692
x264 [info]: frame P:33077 Avg QP:17.72 size: 74275
x264 [info]: frame B:109219 Avg QP:19.91 size: 33326
x264 [info]: consecutive B-frames: 1.6% 2.2% 9.4% 32.3% 26.2% 24.8% 2.1% 0.5% 0.3% 0.2% 0.1% 0.0% 0.0% 0.0% 0.0% 0.0% 0.1%
x264 [info]: mb I I16..4: 7.4% 81.5% 11.1%
x264 [info]: mb P I16..4: 1.0% 36.3% 1.9% P16..4: 21.5% 26.6% 9.1% 0.0% 0.0% skip: 3.6%
x264 [info]: mb B I16..4: 0.2% 6.5% 0.2% B16..8: 33.5% 23.0% 4.9% direct:12.1% skip:19.7% L0:38.4% L1:41.6% BI:20.0%
x264 [info]: 8x8 transform intra:92.9% inter:58.2%
x264 [info]: direct mvs spatial:100.0% temporal:0.0%
x264 [info]: coded y,uvDC,uvAC intra: 94.6% 76.2% 38.9% inter: 45.2% 34.3% 1.5%
x264 [info]: i16 v,h,dc,p: 29% 13% 12% 46%
x264 [info]: i8 v,h,dc,ddl,ddr,vr,hd,vl,hu: 9% 9% 16% 9% 12% 11% 11% 11% 13%
x264 [info]: i4 v,h,dc,ddl,ddr,vr,hd,vl,hu: 11% 9% 9% 9% 14% 13% 12% 10% 12%
x264 [info]: i8c dc,h,v,p: 37% 31% 19% 13%
x264 [info]: Weighted P-Frames: Y:7.5% UV:4.0%
x264 [info]: ref P L0: 38.0% 9.8% 19.6% 8.9% 7.8% 5.9% 5.6% 3.8% 0.6% 0.0%
x264 [info]: ref B L0: 81.8% 8.2% 4.1% 2.3% 1.8% 1.2% 0.7%
x264 [info]: ref B L1: 96.6% 3.4%
x264 [info]: kb/s:8356.57
x264 [total]: encoded 143291 frames, 5.62 fps, 8356.57 kb/s, duration 7:04:42.05
Screenshots Comparison
Скачать

Скачать торрент!

Как скачивать? · Что такое торрент? · Рейтинг и ограничения

Сайт не распространяет и не хранит электронные версии произведений, а лишь предоставляет доступ к создаваемому пользователями каталогу ссылок на торрент-файлы, которые содержат только списки хеш-сумм

[Профиль] [ЛС]
Показать сообщения:    
Ответить на тему

Текущее время: Сегодня 00:12

Часовой пояс: GMT + 4



Вы не можете начинать темы
Вы не можете отвечать на сообщения
Вы не можете редактировать свои сообщения
Вы не можете удалять свои сообщения
Вы не можете голосовать в опросах
Вы не можете прикреплять файлы к сообщениям
Вы не можете скачивать файлы