Жадность / Greedy (Джонатан Линн / Jonathan Lynn) [1994, США, комедия, BDRip 1080p] MVO + 3x AVO + Original Eng + Sub Rus, Eng

Ответить на тему
 
Автор Сообщение

user ®

Стаж: 7 лет 7 месяцев

Сообщений: 20008

Пост Пост: #1 от 14-Окт-2015 16:36

[Цитировать]

Жадность / Greedy
Страна: США
Жанр: комедия
Год выпуска: 1994
Продолжительность: 01:52:22
Перевод 1: Профессиональный (многоголосый закадровый)
Перевод 2: Авторский (одноголосый закадровый) Михалев
Перевод 3: Авторский (одноголосый закадровый) Пронин
Перевод 4: Авторский (одноголосый закадровый) Живов
Cубтитры: русские, английские
Оригинальная аудиодорожка: английский
Режиссер: Джонатан Линн / Jonathan Lynn
В ролях: Майкл Дж. Фокс, Кирк Дуглас, Нэнси Трэвис, Оливия д’Або, Фил Хартмен, Эд Бегли мл., Джер Бернс, Коллин Кэмп, Боб Бэлабан, Джойс Хайзер и др.
Описание: Алчность нередко становятся причиной аморальных поступков, и это прекрасно осознает наблюдательный старик-миллионер Джо МакТиг. Детей и внуков у него нет, но близкие и дальние родственники, предвкушая кончину "дядюшки", ждут удобного момента и ублажают Джо в надежде на солидный куш...
Доп. информация:

1-3 русские дорожки - моно.
СЭМПЛ
Тип релиза: BDRip 1080p
Контейнер: MKV
Видео: 1920x1040p, 23.976 fps, x264, 14000 kbps
Аудио:
1. Русский DTS 2.0, 48 khz, 448 kbps |Многоголосый (R5)|
2. Русский AC3 2.0, 48 khz, 192 kbps |Михалев|
3. Русский AC3 2.0, 48 khz, 192 kbps |Пронин|
4. Русский DTS 5.1, 48 khz, 1536 kbps |Живов|
5. Английский DTS 5.1, 48 khz, 1536 kbps |Original|
Формат субтитров: softsub (SRT)
Навигация по главам: есть
Скриншоты Сравнение с исходником
BD

BDRip (shurikello)
x264 log
x264 [info]: frame I:1217 Avg QP:17.83 size:236681
x264 [info]: frame P:32313 Avg QP:20.30 size:114378
x264 [info]: frame B:128111 Avg QP:22.38 size: 60944
MediaInfo
Общее
Уникальный идентификатор : 230288307084373600997069442790945661291 (0xAD3FEA2636DBE5DE8038D508DAFB216B)
Полное имя : D:\Greedy.1994.BDRip.1080p.x264.4xRus.Eng.mkv
Формат : Matroska
Версия формата : Version 2
Размер файла : 14,0 Гбайт
Продолжительность : 1 ч. 52 м.
Общий поток : 17,8 Мбит/сек
Название фильма : Released by shurikello
Дата кодирования : UTC 2015-10-11 11:59:43
Программа кодирования : mkvmerge v8.4.0 ('A better way to fly') 64bit
Библиотека кодирования : libebml v1.3.1 + libmatroska v1.4.2
Видео
Идентификатор : 1
Формат : AVC
Формат/Информация : Advanced Video Codec
Профиль формата : High@L4.1
Параметр CABAC формата : Да
Параметр ReFrames формата : 4 кадра
Идентификатор кодека : V_MPEG4/ISO/AVC
Продолжительность : 1 ч. 52 м.
Битрейт : 14,0 Мбит/сек
Ширина : 1920 пикселей
Высота : 1040 пикселей
Соотношение сторон : 1,85:1
Режим частоты кадров : Постоянный
Частота кадров : 23,976 кадра/сек
Цветовое пространство : YUV
Субдискретизация насыщенности : 4:2:0
Битовая глубина : 8 бит
Тип развёртки : Прогрессивная
Бит/(Пиксели*Кадры) : 0.292
Размер потока : 10,7 Гбайт (76%)
Библиотека кодирования : x264 core 148 r2597 e86f3a1
Настройки программы : cabac=1 / ref=4 / deblock=1:-3:-3 / analyse=0x3:0x133 / me=tesa / subme=11 / psy=1 / psy_rd=1.00:0.00 / mixed_ref=1 / me_range=48 / chroma_me=1 / trellis=2 / 8x8dct=1 / cqm=0 / deadzone=21,11 / fast_pskip=0 / chroma_qp_offset=-2 / threads=12 / lookahead_threads=3 / sliced_threads=0 / nr=0 / decimate=0 / interlaced=0 / bluray_compat=0 / constrained_intra=0 / bframes=10 / b_pyramid=2 / b_adapt=2 / b_bias=0 / direct=3 / weightb=1 / open_gop=0 / weightp=2 / keyint=240 / keyint_min=23 / scenecut=40 / intra_refresh=0 / rc_lookahead=60 / rc=2pass / mbtree=0 / bitrate=14000 / ratetol=1.0 / qcomp=0.70 / qpmin=0 / qpmax=69 / qpstep=4 / cplxblur=20.0 / qblur=0.5 / vbv_maxrate=50000 / vbv_bufsize=62500 / nal_hrd=none / filler=0 / ip_ratio=1.40 / pb_ratio=1.30 / aq=2:0.80
Язык : English
Default : Да
Forced : Нет
Аудио #1
Идентификатор : 2
Формат : DTS
Формат/Информация : Digital Theater Systems
Режим : 16
Параметр Endianness формата : Big
Идентификатор кодека : A_DTS
Продолжительность : 1 ч. 52 м.
Вид битрейта : Постоянный
Битрейт : 447 Кбит/сек
Каналы : 2 канала
Расположение каналов : Front: L R
Частота : 48,0 КГц
Битовая глубина : 24 бит
Метод сжатия : С потерями
Размер потока : 359 Мбайт (3%)
Заголовок : Многоголосый (R5), DTS 2.0, 448 kbps
Язык : Russian
Default : Да
Forced : Нет
Аудио #2
Идентификатор : 3
Формат : AC-3
Формат/Информация : Audio Coding 3
Расширение режима : CM (complete main)
Параметр Endianness формата : Big
Идентификатор кодека : A_AC3
Продолжительность : 1 ч. 52 м.
Вид битрейта : Постоянный
Битрейт : 192 Кбит/сек
Каналы : 2 канала
Расположение каналов : Front: L R
Частота : 48,0 КГц
Метод сжатия : С потерями
Размер потока : 154 Мбайт (1%)
Заголовок : Михалев, AC3 2.0, 192 kbps
Язык : Russian
Default : Нет
Forced : Нет
Аудио #3
Идентификатор : 4
Формат : AC-3
Формат/Информация : Audio Coding 3
Расширение режима : CM (complete main)
Параметр Endianness формата : Big
Идентификатор кодека : A_AC3
Продолжительность : 1 ч. 52 м.
Вид битрейта : Постоянный
Битрейт : 192 Кбит/сек
Каналы : 2 канала
Расположение каналов : Front: L R
Частота : 48,0 КГц
Метод сжатия : С потерями
Размер потока : 154 Мбайт (1%)
Заголовок : Пронин, AC3 2.0, 192 kbps
Язык : Russian
Default : Нет
Forced : Нет
Аудио #4
Идентификатор : 5
Формат : DTS
Формат/Информация : Digital Theater Systems
Режим : 16
Параметр Endianness формата : Big
Идентификатор кодека : A_DTS
Продолжительность : 1 ч. 52 м.
Вид битрейта : Постоянный
Битрейт : 1509 Кбит/сек
Каналы : 6 каналов
Расположение каналов : Front: L C R, Side: L R, LFE
Частота : 48,0 КГц
Битовая глубина : 24 бит
Метод сжатия : С потерями
Размер потока : 1,18 Гбайт (8%)
Заголовок : Живов, DTS 5.1, 1536 kbps
Язык : Russian
Default : Нет
Forced : Нет
Аудио #5
Идентификатор : 6
Формат : DTS
Формат/Информация : Digital Theater Systems
Режим : 16
Параметр Endianness формата : Big
Идентификатор кодека : A_DTS
Продолжительность : 1 ч. 52 м.
Вид битрейта : Постоянный
Битрейт : 1509 Кбит/сек
Каналы : 6 каналов
Расположение каналов : Front: L C R, Side: L R, LFE
Частота : 48,0 КГц
Битовая глубина : 24 бит
Метод сжатия : С потерями
Размер потока : 1,18 Гбайт (8%)
Заголовок : DTS 5.1, 1536 kbps
Язык : English
Default : Нет
Forced : Нет
Текст #1
Идентификатор : 7
Формат : UTF-8
Идентификатор кодека : S_TEXT/UTF8
Идентификатор кодека/Информация : UTF-8 Plain Text
Язык : Russian
Default : Нет
Forced : Нет
Текст #2
Идентификатор : 8
Формат : UTF-8
Идентификатор кодека : S_TEXT/UTF8
Идентификатор кодека/Информация : UTF-8 Plain Text
Язык : English
Default : Нет
Forced : Нет
Меню
00:00:00.000 : en:00:00:00.000
00:03:01.598 : en:00:03:01.598
00:08:06.527 : en:00:08:06.527
00:13:30.309 : en:00:13:30.309
00:15:35.476 : en:00:15:35.476
00:22:25.344 : en:00:22:25.344
00:34:03.332 : en:00:34:03.332
00:38:38.024 : en:00:38:38.024
00:47:57.374 : en:00:47:57.374
00:50:43.498 : en:00:50:43.498
01:02:23.364 : en:01:02:23.364
01:05:39.977 : en:01:05:39.977
01:14:27.087 : en:01:14:27.087
01:20:32.369 : en:01:20:32.369
01:26:36.816 : en:01:26:36.816
01:35:36.063 : en:01:35:36.063
01:42:23.137 : en:01:42:23.137
01:48:41.473 : en:01:48:41.473
Скачать

Скачать торрент!

Как скачивать? · Что такое торрент? · Рейтинг и ограничения

Сайт не распространяет и не хранит электронные версии произведений, а лишь предоставляет доступ к создаваемому пользователями каталогу ссылок на торрент-файлы, которые содержат только списки хеш-сумм

[Профиль] [ЛС]
Показать сообщения:    
Ответить на тему

Текущее время: Сегодня 03:15

Часовой пояс: GMT + 4



Вы не можете начинать темы
Вы не можете отвечать на сообщения
Вы не можете редактировать свои сообщения
Вы не можете удалять свои сообщения
Вы не можете голосовать в опросах
Вы не можете прикреплять файлы к сообщениям
Вы не можете скачивать файлы