Путешествие Ринглы / Ringlas celojums (Розалия Стиебра) [1973, Рисованный мультфильм, DVDRip] VO

Ответить на тему
 
Автор Сообщение

user ®

Стаж: 7 лет 7 месяцев

Сообщений: 20008

Пост Пост: #1 от 14-Окт-2015 01:06

[Цитировать]

Путешествие Ринглы / Ringlas celojums
Страна: CCCР
Жанр: Рисованный мультфильм
Продолжительность: 00:09:36
Год выпуска: 1973
Перевод: Одноголосый закадровый
Русские субтитры: нет
Режиссёр: Розалия Стиебра
Описание:Фильм по мотивам стихотворения латышского поэта Э.Адамсона "Цыганочка Рингла".Мультик будет интересен детям любого возраста, он очень добрый и с глубоким смыслом: мораль картины заключается в том, что где бы ты ни находился, нужно всегда помнить о своем доме. Сказочное путешествие Ринглы в тайном лесу полно опасностей, но девочка ничего не боится. Она очень хочет встретить медведя Ричуса, о котором ей так много рассказывала ее бабушка.
Доп. информация:
«Телефильм-Рига»
сценарист Янис Закье
художник-постановщик Юрий Исайкин
аниматоры Айна Озолиня и Айя Зиле
оператор Янис Рубенис
композитор Игорь Яковлев
Раздача группы:
Качество: DVDRip
Формат: AVI
Видео: 720x544 (1.32:1), 25 fps, XviD Final 1.0 (build 34) ~2382 kbps avg, 0.24 bit/pixel
Аудио: 48 kHz, MPEG Layer 3, 2 ch, ~128.00 kbps avg
Субтитры: нет
Подробные технические данные
Format : AVIFormat/Info : Audio Video InterleaveFile size : 173 MiBDuration : 9mn 36sOverall bit rate : 2 520 KbpsWriting application : VirtualDubMod 1.5.10.2 (build 2540/release)Writing library : VirtualDubMod build 2540/release
VideoID : 0Format : MPEG-4 VisualFormat profile : Advanced Simple@L5Format settings, BVOP : 1Format settings, QPel : NoFormat settings, GMC : No warppointsFormat settings, Matrix : CustomCodec ID : XVIDCodec ID/Hint : XviDDuration : 9mn 36sBit rate : 2 383 KbpsWidth : 720 pixelsHeight : 544 pixelsDisplay aspect ratio : 4:3Frame rate : 25.000 fpsColor space : YUVChroma subsampling : 4:2:0Bit depth : 8 bitsScan type : ProgressiveCompression mode : LossyBits/(Pixel*Frame) : 0.243Stream size : 164 MiB (95%)Writing library : XviD 1.0.0 (UTC 2004-05-09)
AudioID : 1Format : MPEG AudioFormat version : Version 1Format profile : Layer 3Mode : Joint stereoMode extension : MS StereoCodec ID : 55Codec ID/Hint : MP3Duration : 9mn 36sBit rate mode : ConstantBit rate : 128 KbpsChannel(s) : 2 channelsSampling rate : 48.0 KHzCompression mode : LossyStream size : 8.80 MiB (5%)Alignment : Aligned on interleavesInterleave, duration : 40 ms (1.00 video frame)Interleave, preload duration : 504 msLanguage : Latvian, Lettish
Скриншоты
Скачать

Скачать торрент!

Как скачивать? · Что такое торрент? · Рейтинг и ограничения

Сайт не распространяет и не хранит электронные версии произведений, а лишь предоставляет доступ к создаваемому пользователями каталогу ссылок на торрент-файлы, которые содержат только списки хеш-сумм

[Профиль] [ЛС]
Показать сообщения:    
Ответить на тему

Текущее время: Сегодня 10:52

Часовой пояс: GMT + 4



Вы не можете начинать темы
Вы не можете отвечать на сообщения
Вы не можете редактировать свои сообщения
Вы не можете удалять свои сообщения
Вы не можете голосовать в опросах
Вы не можете прикреплять файлы к сообщениям
Вы не можете скачивать файлы