Ходячие мертвецы / The Walking Dead / Сезон 6 / Серии: 1-16 из 16 (Фрэнк Дарабонт, Эрнест Р. Дикерсон, Гай Ферленд) [2015, Триллер, ужасы, зомби, постапокалипсис, WEB-DLRip] [Lostfilm]

Ответить на тему
 
Автор Сообщение

LORN-V ®

Пол:

Стаж: 4 года 6 месяцев

Сообщений: 1185

Откуда: Munchen

Пост Пост: #1 от 13-Окт-2015 22:57

[Цитировать]

Ходячие мертвецы / The Walking Dead -Основная информация:
Год выпуска: 2015
Страна: США
Жанр: Триллер, ужасы, зомби, постапокалипсис
Перевод: Профессиональный (многоголосый, закадровый) - Lostfilm
Режиссёр: Фрэнк Дарабонт, Эрнест Р. Дикерсон, Гай Ферленд
Продолжительность: ~ 00:43:00 серия-В ролях:
Эндрю Линкольн, Сара Уэйн Кэллис, Лори Холден, Стивен Юн, Чендлер Риггз, Джон Бернтал, Джеффри ДеМанн, Норман Ридус, Айрон Э. Синглтон, Мелисса Сюзанн МакБрайд, Лорен Коэн, Эмили Кинни, Скотт Уилсон, Джейн МакНейлл, Джеймс Аллен МакКьюн, Мэдисон Линтц, Эмма Белл, Джерил Прескотт, Эндрю С. МакМиллан, Эндрю Ротенберг, Майкл Рукер-Описание:
Вирус превратил жителей Земли в зомби. Небольшая группа выживших изо дня в день борется за существование в новом, враждебном мире. Под предводительством бывшего полицейского Рика они ищут безопасное для жизни место. Но не стоит заблуждаться — зомби отнюдь не самое страшное, что ждет наших героев. Основная опасность — другие оставшиеся в живых...-Доп. информация:
Качество: WEB-DLRip
Формат: AVI
Видео кодек: XviD
Аудио кодек: MP3
Видео: ~ 1915 kbps, 720x400
Аудио RUS: mp3, 2 ch, 192 kbps

Обновление раздачи:

Внимание! Раздача ведётся путём добавления новых серий
При каждом добавлении создаётся новый торрент. Чтобы начать докачку новой серии, пользователям необходимо сделать следующее:
1. Остановить скачивание,
2. Удалить старый торрент у себя из клиента (старые серии удалять не надо),
3. Скачать новый торрент и запустить его у себя в клиенте вместо старого, при этом указать клиенту путь в старую папку куда и должно происходить скачивание новых серий.
Ваш клиент при этом должен произвести хеширование (проверку) старой папки (если не производит сам - помогите ему сделать это), и будет докачивать только те серии которых у вас ещё нет. Старые серии при этом не удаляются, а продолжают раздаваться!
Если вы уже удалили старые серии, то предотвратить повторную закачку старых серий можно, отжав галочку в соответствующих местах при запуске нового торрента.

MI:

Общее
Полное имя                               : D:\Torrent\The.Walking.Dead.S06.LostFilm\The.Walking.Dead.S06E01.rus.LostFilm.avi
Формат                                   : AVI
Формат/Информация                        : Audio Video Interleave
Размер файла                             : 981 Мбайт
Продолжительность                        : 1 ч. 4 м.
Режим общего битрейта                    : Переменный
Общий поток                              : 2113 Кбит/сек
Программа кодирования                    : Nandub v1.0rc2
Библиотека кодирования                   : Nandub build 1853/release
Видео
Идентификатор                            : 0
Формат                                   : MPEG-4 Visual
Профиль формата                          : Advanced Simple@L5
Параметр BVOP формата                    : Нет
Параметр QPel формата                    : Нет
Параметр GMC формата                     : Без точки перехода
Параметр матрицы формата                 : Default (H.263)
Идентификатор кодека                     : XVID
Идентификатор кодека/Подсказка           : XviD
Продолжительность                        : 1 ч. 4 м.
Битрейт                                  : 1915 Кбит/сек
Ширина                                   : 720 пикселей
Высота                                   : 400 пикселей
Соотношение сторон                       : 16:9
Частота кадров                           : 23,976 кадра/сек
Цветовое пространство                    : YUV
Субдискретизация насыщенности            : 4:2:0
Битовая глубина                          : 8 бит
Тип развёртки                            : Прогрессивная
Метод сжатия                             : С потерями
Бит/(Пиксели*Кадры)                      : 0.277
Размер потока                            : 889 Мбайт (91%)
Библиотека кодирования                   : XviD 1.2.1 (UTC 2008-12-04)
Аудио
Идентификатор                            : 1
Формат                                   : MPEG Audio
Версия формата                           : Version 1
Профиль формата                          : Layer 3
Режим                                    : Joint stereo
Расширение режима                        : MS Stereo
Идентификатор кодека                     : 55
Идентификатор кодека/Подсказка           : MP3
Продолжительность                        : 1 ч. 4 м.
Вид битрейта                             : Переменный
Битрейт                                  : 192 Кбит/сек
Каналы                                   : 2 канала
Частота                                  : 48,0 КГц
Метод сжатия                             : С потерями
Размер потока                            : 86,3 Мбайт (9%)
Выравнивание                             : Соединение по промежуткам
Продолжительность промежутка             : 24  мс. (0,58 видеокадр)
Время предзагрузки промежутка            : 487  мс.
Библиотека кодирования                   : LAME3.97b
Настройки программы                      : -m j -V 4 -q 3 -lowpass 18.6 --abr 192

Скриншоты:

Скачать

Скачать торрент!

Как скачивать? · Что такое торрент? · Рейтинг и ограничения

Сайт не распространяет и не хранит электронные версии произведений, а лишь предоставляет доступ к создаваемому пользователями каталогу ссылок на торрент-файлы, которые содержат только списки хеш-сумм


_________________
[Профиль] [ЛС]
Показать сообщения:    
Ответить на тему

Текущее время: Сегодня 23:43

Часовой пояс: GMT + 4



Вы не можете начинать темы
Вы не можете отвечать на сообщения
Вы не можете редактировать свои сообщения
Вы не можете удалять свои сообщения
Вы не можете голосовать в опросах
Вы не можете прикреплять файлы к сообщениям
Вы не можете скачивать файлы