Возвращение домой / Coming Home / Gui lai (Чжан Имоу / Zhang Yimou) [2014, Китай, Драма, DVDRip] [Французская версия] VO (Алексей Лыдин)

Ответить на тему
 
Автор Сообщение

user ®

Стаж: 13 лет

Сообщений: 15071

Пост Пост: #1 от 13-Окт-2015 18:54

[Цитировать]

ВОЗВРАЩЕНИЕ ДОМОЙ / COMING HOME / 歸來-- Страна: Китай |
Жанр: Драма
Производство: Le Vision Pictures, Ltd.
Год выпуска: 2014
Продолжительность: 01:44:55
Перевод: Одноголосый закадровый Алексей Лыдин
Cубтитры: французские
Оригинальная аудиодорожка: нет
Режиссёр: [url=http://***/forum/viewtopic.php?t=4148778]Чжан Имоу / Zhang Yimou[/url]
В ролях: Чень Дао-Мин, Гун Ли, Чжан Хуэй-Вэнь, Чжан Цзя-Йи, Чень Сяо-Йи, Дин Цзя-Ли, Цзу Фэн, Лю Пэй-Ци, Янь Ни, Синь Бай-Цин, Гуо Тао, Ван Чжи-Фэй-Описание: Пара - Лю и Фэн была разлучена, когда Лю арестовали и отправили в трудовой лагерь, как политического заключённого, во время "Культурной революции". Когда он вернулся домой, то обнаружил, что его любимая жена уже не помнит его.
Доп. информация: Фильм переведён по заказу релиз-группы -Сэмпл: https://yadi.sk/i/C7EE6JdNjgejT
Качество видео: DVDRip (исходник - французский DVD9)
Формат видео: AVI
Видео: 720x296 (2.43:1), 25 fps, XviD build 50 ~1664 kbps avg, 0.31 bit/pixel
Аудио: 48 kHz, AC3 Dolby Digital, 2/0 (L,R) ch, ~192.00 kbps avg
Формат субтитров: hardsub (неотключаемые)
MediaInfo
Общее
Полное имя : Coming Home (2014).avi
Формат : AVI
Формат/Информация : Audio Video Interleave
Размер файла : 1,37 Гбайт
Продолжительность : 1 ч. 44 м.
Общий поток : 1867 Кбит/сек
Программа кодирования : VirtualDubMod 1.5.10.2 (build 2540/release)
Библиотека кодирования : VirtualDubMod build 2540/release
Видео
Идентификатор : 0
Формат : MPEG-4 Visual
Профиль формата : Advanced Simple@L5
Параметр BVOP формата : 2
Параметр QPel формата : Нет
Параметр GMC формата : Без точки перехода
Параметр матрицы формата : Default (MPEG)
Идентификатор кодека : XVID
Идентификатор кодека/Подсказка : XviD
Продолжительность : 1 ч. 44 м.
Битрейт : 1665 Кбит/сек
Ширина : 720 пикселей
Высота : 296 пикселей
Соотношение сторон : 2,40:1
Частота кадров : 25,000 кадров/сек
Цветовое пространство : YUV
Субдискретизация насыщенности : 4:2:0
Битовая глубина : 8 бит
Тип развёртки : Прогрессивная
Метод сжатия : С потерями
Бит/(Пиксели*Кадры) : 0.312
Размер потока : 1,22 Гбайт (89%)
Библиотека кодирования : XviD 1.2.1 (UTC 2008-12-04)
Аудио
Идентификатор : 1
Формат : AC-3
Формат/Информация : Audio Coding 3
Расширение режима : CM (complete main)
Параметр Endianness формата : Big
Идентификатор кодека : 2000
Продолжительность : 1 ч. 44 м.
Вид битрейта : Постоянный
Битрейт : 192 Кбит/сек
Каналы : 2 канала
Расположение каналов : Front: L R
Частота : 48,0 КГц
Битовая глубина : 16 бит
Метод сжатия : С потерями
Размер потока : 144 Мбайт (10%)
Выравнивание : Разделение по промежуткам
Продолжительность промежутка : 40 мс. (1,00 видеокадр)
Время предзагрузки промежутка : 500 мс.
Скриншот c названием фильма Скриншоты Постеры Награды
Golden Horse Film Festival (2014)
Лучший адаптированный сценарий (Цзоу Цзин-Ци, Янь Гелин)
Лучшая женская роль (Гун Ли)
Лучшая новая актриса (Чжан Хуэй-Вэнь)
Лучшая музыка (Чень Ци-Ган)

Asian Film Award (2015)
Лучшая женская роль (Гун Ли)
Лучшая новая актриса (Чжан Хуэй-Вэнь)

Golden Rooster (2015)
Лучший адаптированный сценарий (Янь Гелин, Цзоу Цзин-Ци)
Лучшая женская роль второго плана (Чжан Хуэй-Вэнь)
Скачать

Скачать торрент! Возвращение домой / Coming Home / Gui lai (Чжан Имоу / Zhang Yimou) [2014, Китай, Драма, DVDRip] [Французская версия] VO (Алексей Лыдин)

Как скачивать? · Что такое торрент? · Рейтинг и ограничения

Сайт не распространяет и не хранит электронные версии произведений, а лишь предоставляет доступ к создаваемому пользователями каталогу ссылок на торрент-файлы, которые содержат только списки хеш-сумм

[Профиль] [ЛС]
Показать сообщения:    
Ответить на тему

Текущее время: Сегодня 15:41

Часовой пояс: GMT + 4



Вы не можете начинать темы
Вы не можете отвечать на сообщения
Вы не можете редактировать свои сообщения
Вы не можете удалять свои сообщения
Вы не можете голосовать в опросах
Вы не можете прикреплять файлы к сообщениям
Вы не можете скачивать файлы