Виолончель / Cello / Symphony of Death UNCUT / Chello hongmijoo ilga salinsagan (У-чхоль Ли / Woo-cheol Lee) [2005, Южная Корея, ужасы, детектив, BDRip-AVC] DVO (DeadSno & den904) + Sub Eng + Original Kor

Ответить на тему
 
Автор Сообщение

user ®

Стаж: 13 лет

Сообщений: 15071

Пост Пост: #1 от 13-Окт-2015 12:42

[Цитировать]

Виолончель / Cello / Symphony of Death UNCUT / Chello hongmijoo ilga salinsagan
Страна: Южная Корея
Жанр: ужасы, детектив
Год выпуска: 2005
Продолжительность: 01:32:15
Перевод: Любительский (двухголосый закадровый) DeadSno & den904 по переводу sergik1
Cубтитры: английские
Оригинальная аудиодорожка: корейский
Режиссер: У-чхоль Ли / Woo-cheol Lee
В ролях: Сон Хён А, Пак Да Ан, Чон Хо Бин, Джин Ву, На-ун Ким, Чжу-на Ли и др.
Описание: Молодая мать, Ми-джу, покупает виолончель для своей дочери. В прошлом, женщина очень хорошо играла, но была вынуждена бросить занятия музыкой. Сейчас, она обучает свою дочь. Вскоре, девочка начинает странно вести себя, а в доме стали происходить необъяснимые вещи. Загадка виолончели связана с трагическим событием из прошлого Мин-джу…
II Сэмпл II IMDB II
Релиз группа:

За исходник, работу со звуком, благодарим G00ba
Качество видео: BDRip-AVC (Symphony of Death UNCUT 2005 German DTS-HD 1080i BluRay AVC REMUX-LeetHD)
Формат видео: MKV
Видео: AVC / 1136x624 / 1.82:1 / 25.0fps / Bit rate 2470Kbps / b/p 0.139
Аудио 1: AC3 / 48.0KHz / 6ch. / 448kbps / rus / dvo / DeadSno & den904
Аудио 2: AC3 / 48.0KHz / 6ch. / 448kbps / kor
Формат субтитров: softsub (SRT)
MediaInfo
Общее
Уникальный идентификатор : 254051052179245390733805571793721243417 (0xBF2073EFE959661097D8E592FBE83719)
Полное имя : H:\!_Torrent\Cello.2005.BDRip-AVC.mkv
Формат : Matroska
Версия формата : Version 4 / Version 2
Размер файла : 2,17 Гбайт
Продолжительность : 1 ч. 32 м.
Общий поток : 3368 Кбит/сек
Название фильма : Cello.2005.BDRip-AVC-RG.Orient.Extreme.Films
Дата кодирования : UTC 2015-10-11 07:01:15
Программа кодирования : mkvmerge v8.4.0 ('A better way to fly') 64bit
Библиотека кодирования : libebml v1.3.1 + libmatroska v1.4.2
DURATION : 01:29:30.088000000
NUMBER_OF_FRAMES : 603
NUMBER_OF_BYTES : 18431
_STATISTICS_WRITING_APP : mkvmerge v8.4.0 ('A better way to fly') 64bit
_STATISTICS_WRITING_DATE_UTC : 2015-10-11 07:01:15
_STATISTICS_TAGS : BPS DURATION NUMBER_OF_FRAMES NUMBER_OF_BYTES
Видео
Идентификатор : 1
Формат : AVC
Формат/Информация : Advanced Video Codec
Профиль формата : High@L4.1
Параметр CABAC формата : Да
Параметр ReFrames формата : 11 кадров
Идентификатор кодека : V_MPEG4/ISO/AVC
Продолжительность : 1 ч. 32 м.
Битрейт : 2470 Кбит/сек
Ширина : 1136 пикселей
Высота : 624 пикселя
Соотношение сторон : 1,85:1
Режим частоты кадров : Постоянный
Частота кадров : 25,000 кадров/сек
Цветовое пространство : YUV
Субдискретизация насыщенности : 4:2:0
Битовая глубина : 8 бит
Тип развёртки : Прогрессивная
Бит/(Пиксели*Кадры) : 0.139
Размер потока : 1,55 Гбайт (71%)
Заголовок : Cello.2005.BDRip-AVC
Библиотека кодирования : x264 core 148 r2597 e86f3a1
Настройки программы : cabac=1 / ref=11 / deblock=1:-3:-3 / analyse=0x3:0x133 / me=umh / subme=11 / psy=0 / mixed_ref=1 / me_range=36 / chroma_me=1 / trellis=2 / 8x8dct=1 / cqm=0 / deadzone=21,11 / fast_pskip=0 / chroma_qp_offset=0 / threads=12 / lookahead_threads=2 / sliced_threads=0 / nr=0 / decimate=1 / interlaced=0 / bluray_compat=0 / constrained_intra=0 / bframes=8 / b_pyramid=2 / b_adapt=2 / b_bias=0 / direct=3 / weightb=1 / open_gop=0 / weightp=2 / keyint=250 / keyint_min=25 / scenecut=40 / intra_refresh=0 / rc_lookahead=40 / rc=2pass / mbtree=0 / bitrate=2470 / ratetol=1.0 / qcomp=0.60 / qpmin=0 / qpmax=69 / qpstep=4 / cplxblur=20.0 / qblur=0.5 / vbv_maxrate=50000 / vbv_bufsize=62500 / nal_hrd=none / filler=0 / ip_ratio=1.40 / pb_ratio=1.30 / aq=1:0.80
Default : Да
Forced : Нет
DURATION : 01:32:15.000000000
NUMBER_OF_FRAMES : 138375
NUMBER_OF_BYTES : 1708775373
_STATISTICS_WRITING_APP : mkvmerge v8.4.0 ('A better way to fly') 64bit
_STATISTICS_WRITING_DATE_UTC : 2015-10-11 07:01:15
_STATISTICS_TAGS : BPS DURATION NUMBER_OF_FRAMES NUMBER_OF_BYTES
Аудио #1
Идентификатор : 2
Формат : AC-3
Формат/Информация : Audio Coding 3
Расширение режима : CM (complete main)
Параметр Endianness формата : Big
Идентификатор кодека : A_AC3
Продолжительность : 1 ч. 32 м.
Вид битрейта : Постоянный
Битрейт : 448 Кбит/сек
Каналы : 6 каналов
Расположение каналов : Front: L C R, Side: L R, LFE
Частота : 48,0 КГц
Метод сжатия : С потерями
Размер потока : 296 Мбайт (13%)
Заголовок : DVO @ DeadSno & den904
Язык : Russian
Default : Да
Forced : Нет
Аудио #2
Идентификатор : 3
Формат : AC-3
Формат/Информация : Audio Coding 3
Расширение режима : CM (complete main)
Параметр Endianness формата : Big
Идентификатор кодека : A_AC3
Продолжительность : 1 ч. 32 м.
Вид битрейта : Постоянный
Битрейт : 448 Кбит/сек
Каналы : 6 каналов
Расположение каналов : Front: L C R, Side: L R, LFE
Частота : 48,0 КГц
Метод сжатия : С потерями
Размер потока : 296 Мбайт (13%)
Заголовок : original
Язык : Korean
Default : Нет
Forced : Нет
Текст
Идентификатор : 4
Формат : UTF-8
Идентификатор кодека : S_TEXT/UTF8
Идентификатор кодека/Информация : UTF-8 Plain Text
Заголовок : subtitle eng
Язык : English
Default : Нет
Forced : Нет
Меню
00:00:00.000 : en:Chapter 01
00:12:12.800 : en:Chapter 02
00:21:08.280 : en:Chapter 03
00:27:54.520 : en:Chapter 04
00:35:03.160 : en:Chapter 05
00:43:31.000 : en:Chapter 06
00:48:08.480 : en:Chapter 07
00:54:54.000 : en:Chapter 08
01:02:10.320 : en:Chapter 09
01:11:08.160 : en:Chapter 10
01:16:02.800 : en:Chapter 11
01:22:57.520 : en:Chapter 12
01:30:13.800 : en:Chapter 13
Скриншот c названием фильма Скриншоты
Скачать

Скачать торрент! Виолончель / Cello / Symphony of Death UNCUT / Chello hongmijoo ilga salinsagan (У-чхоль Ли / Woo-cheol Lee) [2005, Южная Корея, ужасы, детектив, BDRip-AVC] DVO (DeadSno & den904) + Sub Eng + Original Kor

Как скачивать? · Что такое торрент? · Рейтинг и ограничения

Сайт не распространяет и не хранит электронные версии произведений, а лишь предоставляет доступ к создаваемому пользователями каталогу ссылок на торрент-файлы, которые содержат только списки хеш-сумм

[Профиль] [ЛС]
Показать сообщения:    
Ответить на тему

Текущее время: Сегодня 22:10

Часовой пояс: GMT + 4



Вы не можете начинать темы
Вы не можете отвечать на сообщения
Вы не можете редактировать свои сообщения
Вы не можете удалять свои сообщения
Вы не можете голосовать в опросах
Вы не можете прикреплять файлы к сообщениям
Вы не можете скачивать файлы