Один и два / One and Two (Эндрю Дроз Палермо / Andrew Droz Palermo) [2015, США, фэнтези, триллер, драма, WEB-DLRip]

Ответить на тему
 
Автор Сообщение

user ®

Стаж: 7 лет 7 месяцев

Сообщений: 20008

Пост Пост: #1 от 13-Окт-2015 12:42

[Цитировать]

Один и два / One and TwoСтрана: США, Bow and Arrow Entertainment
Год выпуска: 2015
Жанр: фэнтези, триллер, драма
Продолжительность: 01:30:42
Озвучивание: Одноголосое (закадровое) datynet (любая реклама и ссылки отсутствуют)-Режиссер: Эндрю Дроз Палермо / Andrew Droz Palermo-В ролях: Кирнан Шипка, Тимоти Чаламет, Элизабет Ризер, Грант Боулер, Венди Алстром, Кайл Белл, Захари Дилан Браун, Моника Крамплер, Рэйвен Саймон Феррелл
--Брат и сестра обнаруживают у себя сверхестественные способности и с их помощью решают сбежать из дома, пока их не разлучили...
Новый фильм Эндрю Дроз Трагоса рассказывает о брате и сестре, которые растут в изолированном от всего живого деревенском доме, где правила устанавливает властный отец. Его страх перед внешним миром настолько силен, что он обнес свое жилище высоченной стеной и лучше даст кому-нибудь из членов семьи умереть, чем осмелиться обратиться за помощью к тому «жестокому» обществу, которое скрывается по ту сторону ограждения. Как известно, общий враг объединяет и брат с сестрой формируют связь настолько сильную, что она способна нарушить законы физики и унести их далеко-далеко от ненавистного дома-тюрьмы.
-
-
Сэмпл: http://sendfile.su/1163978
Качество видео: WEB-DLRip
Формат видео: AVI
Видео: XviD (1.2.1) 990kbps 688x288 23.976fps
Аудио: MP3 128kbps 2ch 16bit 44100khz

MediaInfo
MediaInfoLib - v0.7.62
General
Complete name : E:\Контарик\Downloads\Мои раздачи\Один и два (One and Two). 2015г. WEB-DLRip. - kontarik81.avi
Format : AVI
Format/Info : Audio Video Interleave
File size : 734 MiB
Duration : 1h 30mn
Overall bit rate : 1 131 Kbps
Writing application : VirtualDubMod 1.5.10.3 | www.virtualdub-fr.org || (build 2550/release)
Writing library : VirtualDubMod build 2550/release
Video
ID : 0
Format : MPEG-4 Visual
Format profile : Advanced Simple@L5
Format settings, BVOP : 1
Format settings, QPel : No
Format settings, GMC : No warppoints
Format settings, Matrix : Default (MPEG)
Codec ID : XVID
Codec ID/Hint : XviD
Duration : 1h 30mn
Bit rate : 994 Kbps
Width : 688 pixels
Height : 288 pixels
Display aspect ratio : 2.40:1
Frame rate : 23.976 fps
Color space : YUV
Chroma subsampling : 4:2:0
Bit depth : 8 bits
Scan type : Progressive
Compression mode : Lossy
Bits/(Pixel*Frame) : 0.209
Stream size : 645 MiB (88%)
Writing library : XviD 1.2.1 (UTC 2008-12-04)
Audio
ID : 1
Format : MPEG Audio
Format version : Version 1
Format profile : Layer 3
Codec ID : 55
Codec ID/Hint : MP3
Duration : 1h 30mn
Bit rate mode : Constant
Bit rate : 128 Kbps
Channel(s) : 2 channels
Sampling rate : 44.1 KHz
Compression mode : Lossy
Stream size : 83.0 MiB (11%)
Alignment : Split accross interleaves
Interleave, duration : 42 ms (1.00 video frame)
Interleave, preload duration : 500 ms
Writing library : LAME3.99r
Encoding settings : -m s -V 4 -q 2 -lowpass 17 -b 128
Скриншот c названием фильма Скриншоты
Скачать

Скачать торрент!

Как скачивать? · Что такое торрент? · Рейтинг и ограничения

Сайт не распространяет и не хранит электронные версии произведений, а лишь предоставляет доступ к создаваемому пользователями каталогу ссылок на торрент-файлы, которые содержат только списки хеш-сумм

[Профиль] [ЛС]
Показать сообщения:    
Ответить на тему

Текущее время: Сегодня 10:54

Часовой пояс: GMT + 4



Вы не можете начинать темы
Вы не можете отвечать на сообщения
Вы не можете редактировать свои сообщения
Вы не можете удалять свои сообщения
Вы не можете голосовать в опросах
Вы не можете прикреплять файлы к сообщениям
Вы не можете скачивать файлы