Бумажные города / Paper Towns (Джейк Шрейер / Jake Schreier) [2015, США, Мелодрама, детектив, комедия, BDRip-AVC] Dub + Sub Rus, Eng + Original Eng

Ответить на тему
 
Автор Сообщение

user ®

Стаж: 7 лет 7 месяцев

Сообщений: 20008

Пост Пост: #1 от 13-Окт-2015 03:24

[Цитировать]

Бумажные городаPaper Towns«Найди меня»

Страна: США
Жанр: Мелодрама, детектив, комедия
Год выпуска: 2015
Продолжительность: 01:49:05
Перевод: Профессиональный (дублированный) iTunes
Cубтитры: русские,английские
Оригинальная аудиодорожка: английский
Режиссер: Джейк Шрейер / Jake Schreier
В ролях: Нат Вулф, Кара Делевинь, Остин Абрамс, Джастис Смит, Холстон Сейдж, Жасмин Сабино, Кара Буоно, Джозиа Серио, Ханна Аллигуд, Мэг Кросби
Описание: Выпускник школы Кью Джейкобсен с детских лет тайно влюблен в свою прекрасную и дерзкую соседку Марго Рот Шпигельманн. Поэтому, когда однажды ночью она приглашает его принять участие в «карательной операции» против ее обидчиков, он соглашается. Но, придя в школу после их ночного приключения, Кью узнает, что Марго исчезла... оставив для него лишь таинственные послания, которые он должен разгадать, чтобы найти девушку.
Доп. информация:
Релиз группы:
Качество видео: BDRip-AVC |Бумажные города / Paper Towns (2015) 1080p BD-Remux| HD club
Формат видео: MKV
Видео: 1152x480 (2:40:1), 23,976 fps, 1332 Кbps, 0.102 bit/pixe
Аудио: 48 kHz, AC3 Dolby Digital, 3/2 (L,C,R,l,r) + LFE ch, ~384.00 kbps avg | DUB
Аудио 2: 48 kHz, AC3 Dolby Digital, 3/2 (L,C,R,l,r) + LFE ch, ~448.00 kbps avg | ENG
Формат субтитров: softsub (SRT)
Доп. информация о субтитрах: отключаемые

Знаете ли Вы что
• Экранизация одноименного романа Джона Грина.
• Кара Делевинь была не единственной актрисой, которая рассматривалась на роль Марго. Первоначально эта роль была отдана Шейлин Вудли, но она покинула проект из-за несогласованности съемочных графиков с фильмом «Дивергент, глава 2: Инсургент» (2015). Джон Грин сказал, что он хотел взять на эту роль ютубера Эмму Блэкери, но подбор актеров от него не зависел.
• Джон Грин сыграл эпизодическую роль – его голосом говорит отец Бекки.
• Фильм снимался в течение пяти дней в Хантерсвилле (штат Северная Каролина, США), в районе Скайбрук (Skybrook), в ноябре 2014 года.
• В книге Квентин не идет на выпускной, более того он неоднократно заявляет о том, что презирает это мероприятие.
Ошибки в фильме
• Когда Квентин с друзьями чуть не врезаются в корову на дороге, у него начинает идти кровь, и Бэн отрывает кусок ткани от своей футболки, чтобы перевязать рану. Однако, когда ребята прибывают в Бумажный Город, футболка у него абсолютно целая.
MediaInfo
General
Unique ID : 204108208118703595931105458684490769540 (0x998DCF9D1CEA18CD95445047A1196484)
Complete name : D:\Мои рипы\Бумажные города\Paper Towns by_IVAN@190282.mkv
Format : Matroska
Format version : Version 4 / Version 2
File size : 1.70 GiB
Duration : 1h 49mn
Overall bit rate : 2 228 Kbps
Encoded date : UTC 2015-10-10 15:20:16
Writing application : mkvmerge v8.4.0 ('A better way to fly') 64bit
Writing library : libebml v1.3.1 + libmatroska v1.4.2
Attachements : cover.jpg
DURATION : 01:43:44.218000000
NUMBER_OF_FRAMES : 1890
NUMBER_OF_BYTES : 53358
_STATISTICS_WRITING_APP : mkvmerge v8.4.0 ('A better way to fly') 64bit
_STATISTICS_WRITING_DATE_UT : 2015-10-10 15:20:16
_STATISTICS_TAGS : BPS DURATION NUMBER_OF_FRAMES NUMBER_OF_BYTES
Video
ID : 1
Format : AVC
Format/Info : Advanced Video Codec
Format profile : High@L4.1
Format settings, CABAC : Yes
Format settings, ReFrames : 12 frames
Codec ID : V_MPEG4/ISO/AVC
Duration : 1h 49mn
Bit rate : 1 352 Kbps
Width : 1 152 pixels
Height : 480 pixels
Display aspect ratio : 2.40:1
Frame rate mode : Constant
Frame rate : 23.976 fps
Color space : YUV
Chroma subsampling : 4:2:0
Bit depth : 8 bits
Scan type : Progressive
Bits/(Pixel*Frame) : 0.102
Stream size : 1.03 GiB (61%)
Title : Paper Towns by_IVAN@190282
Writing library : x264 core 148 r2597kMod e86f3a1
Encoding settings : cabac=1 / ref=12 / deblock=1:-3:-3 / analyse=0x3:0x133 / me=umh / subme=11 / psy=1 / fade_compensate=0.00 / psy_rd=1.00:0.05 / mixed_ref=1 / me_range=48 / chroma_me=1 / trellis=2 / 8x8dct=1 / cqm=0 / deadzone=21,11 / fast_pskip=0 / chroma_qp_offset=-3 / threads=6 / lookahead_threads=6 / sliced_threads=0 / nr=0 / decimate=1 / interlaced=0 / bluray_compat=0 / constrained_intra=0 / fgo=0 / bframes=16 / b_pyramid=2 / b_adapt=2 / b_bias=0 / direct=3 / weightb=1 / open_gop=0 / weightp=2 / keyint=240 / keyint_min=23 / scenecut=40 / intra_refresh=0 / rc_lookahead=60 / rc=crf / mbtree=0 / crf=17.8000 / qcomp=0.60 / qpmin=0 / qpmax=69 / qpstep=4 / vbv_maxrate=50000 / vbv_bufsize=62500 / crf_max=0.0 / nal_hrd=none / filler=0 / ip_ratio=1.40 / pb_ratio=1.30 / aq=2:1.10
Language : English
Default : Yes
Forced : No
Color range : Limited
Color primaries : BT.709
Transfer characteristics : BT.709
Matrix coefficients : BT.709
DURATION : 01:49:05.456000000
NUMBER_OF_FRAMES : 156934
NUMBER_OF_BYTES : 1140557853
_STATISTICS_WRITING_APP : mkvmerge v8.4.0 ('A better way to fly') 64bit
_STATISTICS_WRITING_DATE_UT : 2015-10-10 15:20:16
_STATISTICS_TAGS : BPS DURATION NUMBER_OF_FRAMES NUMBER_OF_BYTES
Audio #1
ID : 2
Format : AC-3
Format/Info : Audio Coding 3
Mode extension : CM (complete main)
Format settings, Endianness : Big
Codec ID : A_AC3
Duration : 1h 49mn
Bit rate mode : Constant
Bit rate : 384 Kbps
Channel(s) : 6 channels
Channel positions : Front: L C R, Side: L R, LFE
Sampling rate : 48.0 KHz
Compression mode : Lossy
Stream size : 300 MiB (17%)
Title : Dub
Default : Yes
Forced : No
Audio #2
ID : 3
Format : AC-3
Format/Info : Audio Coding 3
Mode extension : CM (complete main)
Format settings, Endianness : Big
Codec ID : A_AC3
Duration : 1h 49mn
Bit rate mode : Constant
Bit rate : 448 Kbps
Channel(s) : 6 channels
Channel positions : Front: L C R, Side: L R, LFE
Sampling rate : 48.0 KHz
Compression mode : Lossy
Stream size : 350 MiB (20%)
Title : Eng
Language : English
Default : No
Forced : No
Text #1
ID : 4
Format : UTF-8
Codec ID : S_TEXT/UTF8
Codec ID/Info : UTF-8 Plain Text
Title : Rus forsed
Default : Yes
Forced : Yes
Text #2
ID : 5
Format : UTF-8
Codec ID : S_TEXT/UTF8
Codec ID/Info : UTF-8 Plain Text
Title : Rus
Default : No
Forced : No
Text #3
ID : 6
Format : UTF-8
Codec ID : S_TEXT/UTF8
Codec ID/Info : UTF-8 Plain Text
Title : Eng
Language : English
Default : No
Forced : No
Menu
00:00:00.000 : en:Chapter 1
00:07:33.411 : en:Chapter 2
00:12:00.302 : en:Chapter 3
00:12:59.445 : en:Chapter 4
00:15:55.370 : en:Chapter 5
00:20:56.922 : en:Chapter 6
00:23:15.434 : en:Chapter 7
00:25:52.675 : en:Chapter 8
00:29:59.255 : en:Chapter 9
00:38:14.041 : en:Chapter 10
00:46:43.842 : en:Chapter 11
00:49:46.315 : en:Chapter 12
00:53:19.528 : en:Chapter 13
00:55:10.222 : en:Chapter 14
00:58:07.858 : en:Chapter 15
01:08:42.326 : en:Chapter 16
01:12:22.337 : en:Chapter 17
01:15:45.707 : en:Chapter 18
01:19:10.162 : en:Chapter 19
01:22:46.836 : en:Chapter 20
01:25:09.686 : en:Chapter 21
01:28:07.738 : en:Chapter 22
01:31:15.552 : en:Chapter 23
01:36:02.756 : en:Chapter 24
01:37:35.890 : en:Chapter 25
01:40:35.404 : en:Chapter 26
01:45:16.518 : en:Chapter 27
x264 log
VIDEO ENCODING
x264 [info]: frame I:1207 Avg QP:14.98 size: 56324 PSNR Mean Y:49.61 U:53.83 V:54.20 Avg:50.36 Global:49.91
x264 [info]: frame P:33117 Avg QP:16.13 size: 16817 PSNR Mean Y:48.20 U:54.78 V:55.13 Avg:49.06 Global:48.41
x264 [info]: frame B:122610 Avg QP:18.97 size: 4206 PSNR Mean Y:47.98 U:53.90 V:54.32 Avg:48.88 Global:48.25
x264 [info]: consecutive B-frames: 1.9% 2.3% 6.7% 25.4% 15.7% 27.0% 7.0% 9.1% 2.1% 0.7% 0.5% 1.0% 0.2% 0.1% 0.0% 0.1% 0.1%
x264 [total]: encoded 156934 frames, 8.53 fps, 1394.01 kb/s, duration 5:06:41.19
Скриншот c названием фильма Скриншоты
Скачать

Скачать торрент!

Как скачивать? · Что такое торрент? · Рейтинг и ограничения

Сайт не распространяет и не хранит электронные версии произведений, а лишь предоставляет доступ к создаваемому пользователями каталогу ссылок на торрент-файлы, которые содержат только списки хеш-сумм

[Профиль] [ЛС]
Показать сообщения:    
Ответить на тему

Текущее время: Сегодня 06:11

Часовой пояс: GMT + 4



Вы не можете начинать темы
Вы не можете отвечать на сообщения
Вы не можете редактировать свои сообщения
Вы не можете удалять свои сообщения
Вы не можете голосовать в опросах
Вы не можете прикреплять файлы к сообщениям
Вы не можете скачивать файлы