Эдвард руки-ножницы / Edward Scissorhands (Тим Бёртон / Tim Burton) [1990, США, фэнтези, драма, мелодрама, Blu-ray Disc 1080p] [25th Anniversary 4K Remastered Edition] [CEE] MVO (ОРТ) + Original Eng + Sub Eng, Rus

Ответить на тему
 
Автор Сообщение

user ®

Стаж: 7 лет 7 месяцев

Сообщений: 20008

Пост Пост: #1 от 12-Окт-2015 21:12

[Цитировать]

Эдвард руки-ножницы / Edward Scissorhands
«The story of an uncommonly gentle man»
Год выпуска: 1990
Страна: США
Производство: 20th Century Fox
Жанр: Фэнтези, драма, мелодрама
Продолжительность: 01:45:00
Перевод: Профессиональный (многоголосый закадровый) | ОРТ
Оригинальная аудиодорожка: Английский
Субтитры: Английские, испанские, французские, датские, голландские, финские, немецкие, итальянские, японские, норвежские, португальские, русские, шведские, китайские, чешские, греческие, корейские, польские, тайские
Режиссёр: Тим Бёртон
В ролях: Джонни Депп, Вайнона Райдер, Дайян Уист, Энтони Майкл Холл, Кэти Бэйкер, Роберт Оливери, Кончата Феррелл, Кэролайн Аарон, Дик Энтони Уильямс, О-Лан Джонс, Винсент Прайс, Алан Аркин, Сьюзэн Бломмаерт, Линда Перри, Джон Дэвидсон, Бифф Йеджер, Марти Гринберг, Брайан Ларкин, Джон МакМахон, Виктория Прайс, Стюарт Ланкастер и др.
Описание: Одинокий старый учёный создал человеческое существо. Но не успел доделать его до конца и умер. У сотворенного им молодого человека не хватает рук – вместо них у него нечто вроде ножниц – и он вынужден жить в заброшенном доме в полном одиночестве. Но вот однажды он знакомится с прекрасной девушкой, которая смогла оценить его доброе сердце...
Также на диске
* Документальный фильм
* Комментарии Тима Бертона
* Комментарии Дэнни Эльфмана
* Кинотеатральные ролики

Источник: HDBits
Сэмпл
Качество: Blu-ray Disc 1080p
Формат: BDMV
Видео: MPEG-4 AVC: 30042 kbps / 1080p / 23.976 fps / 16:9
Аудио: English: DTS-HD MA / 4.0 / 48 kHz / 3013 kbps / 24-bit (DTS Core: 4.0 / 48 kHz / 1509 kbps / 24-bit) | Оригинальный
Аудио: Spanish: AC3 / 2.0 / 48 kHz / 192 kbps
Аудио: French: DTS / 5.1 / 48 kHz / 768 kbps / 24-bit
Аудио: Spanish: DTS / 5.1 / 48 kHz / 768 kbps / 24-bit
Аудио: German: DTS / 5.1 / 48 kHz / 768 kbps / 24-bit
Аудио: Italian: DTS / 5.1 / 48 kHz / 768 kbps / 24-bit
Аудио: Japanese: DTS / 5.1 / 48 kHz / 768 kbps / 24-bit
Аудио: Portuguese: AC3 / 5.1 / 48 kHz / 448 kbps
Аудио: Russian: DTS / 5.1 / 48 kHz / 768 kbps / 24-bit | ОРТ
Аудио: Czech: AC3 / 2.0 / 48 kHz / 224 kbps
Аудио: Polish: AC3 / 5.1 / 48 kHz / 448 kbps
Аудио: Thai: AC3 / 2.0 / 48 kHz / 224 kbps
Аудио: English: AC3 / 2.0 / 48 kHz / 224 kbps
Аудио: English: AC3 / 2.0 / 48 kHz / 224 kbps
BDInfo
Disc Title: EDWARD_SCISSORHANDS_REMASTEREDDisc Size: 36 991 828 986 bytesProtection: AACSBD-Java: YesBDInfo: 0.5.8
Notes:
BDINFO HOME: Cinema Squid http://www.cinemasquid.com/blu-ray/tools/bdinfo
INCLUDES FORUMS REPORT FOR: AVS Forum Blu-ray Audio and Video Specifications Thread http://www.avsforum.com/avs-vb/showthread.php?t=1155731
********************PLAYLIST: 00800.MPLS********************
Total   Video
Title                                                           Codec   Length  Movie Size      Disc Size       Bitrate Bitrate Main Audio Track                          Secondary Audio Track
-----                                                           ------  ------- --------------  --------------  ------- ------- ------------------                        ---------------------
00800.MPLS                                                      AVC     1:45:00 33 809 074 176  36 991 828 986  42.93   30.04   DTS-HD Master 4.0 3013Kbps (48kHz/24-bit)
DISC INFO:
Disc Title:     EDWARD_SCISSORHANDS_REMASTERED
Disc Size:      36 991 828 986 bytes
Protection:     AACS
BD-Java:        Yes
BDInfo:         0.5.8
PLAYLIST REPORT:
Name:                   00800.MPLS
Length:                 1:45:00.752 (h:m:s.ms)
Size:                   33 809 074 176 bytes
Total Bitrate:          42.93 Mbps
(*) Indicates included stream hidden by this playlist.
VIDEO:
Codec                   Bitrate             Description
-----                   -------             -----------
MPEG-4 AVC Video        30042 kbps          1080p / 23.976 fps / 16:9 / High Profile 4.1
AUDIO:
Codec                           Language        Bitrate         Description
-----                           --------        -------         -----------
DTS-HD Master Audio             English         3013 kbps       4.0 / 48 kHz / 3013 kbps / 24-bit (DTS Core: 4.0 / 48 kHz / 1509 kbps / 24-bit)
Dolby Digital Audio             Spanish         192 kbps        2.0 / 48 kHz / 192 kbps / DN -4dB / Dolby Surround
DTS Audio                       French          768 kbps        5.1 / 48 kHz / 768 kbps / 24-bit
DTS Audio                       Spanish         768 kbps        5.1 / 48 kHz / 768 kbps / 24-bit
DTS Audio                       German          768 kbps        5.1 / 48 kHz / 768 kbps / 24-bit
DTS Audio                       Italian         768 kbps        5.1 / 48 kHz / 768 kbps / 24-bit
* DTS Audio                     Japanese        768 kbps        5.1 / 48 kHz / 768 kbps / 24-bit
Dolby Digital Audio             Portuguese      448 kbps        5.1 / 48 kHz / 448 kbps / DN -4dB
DTS Audio                       Russian         768 kbps        5.1 / 48 kHz / 768 kbps / 24-bit
Dolby Digital Audio             Czech           224 kbps        2.0 / 48 kHz / 224 kbps / DN -4dB
Dolby Digital Audio             Polish          448 kbps        5.1 / 48 kHz / 448 kbps / DN -4dB
Dolby Digital Audio             Thai            224 kbps        2.0 / 48 kHz / 224 kbps / Dolby Surround
Dolby Digital Audio             English         224 kbps        2.0 / 48 kHz / 224 kbps / DN -4dB
Dolby Digital Audio             English         224 kbps        2.0 / 48 kHz / 224 kbps / DN -4dB
SUBTITLES:
Codec                           Language        Bitrate         Description
-----                           --------        -------         -----------
Presentation Graphics           English         48.592 kbps
Presentation Graphics           Spanish         25.926 kbps
Presentation Graphics           French          20.498 kbps
Presentation Graphics           Spanish         23.989 kbps
Presentation Graphics           Danish          17.838 kbps
Presentation Graphics           Dutch           21.845 kbps
Presentation Graphics           Finnish         19.143 kbps
Presentation Graphics           German          24.304 kbps
Presentation Graphics           Italian         22.583 kbps
* Presentation Graphics         Japanese        15.161 kbps
Presentation Graphics           Norwegian       17.698 kbps
Presentation Graphics           Portuguese      25.167 kbps
Presentation Graphics           Russian         25.801 kbps
Presentation Graphics           Swedish         14.523 kbps
Presentation Graphics           Chinese         48.820 kbps
Presentation Graphics           Czech           24.182 kbps
Presentation Graphics           Greek           22.376 kbps
Presentation Graphics           Korean          14.461 kbps
Presentation Graphics           Chinese         22.599 kbps
Presentation Graphics           Chinese         16.251 kbps
Presentation Graphics           Polish          25.588 kbps
Presentation Graphics           Thai            14.517 kbps
Presentation Graphics           English         14.351 kbps
Presentation Graphics           French          17.831 kbps
Presentation Graphics           German          17.425 kbps
* Presentation Graphics         Japanese        11.890 kbps
Presentation Graphics           English         19.747 kbps
Presentation Graphics           French          21.749 kbps
Presentation Graphics           German          23.412 kbps
* Presentation Graphics         Japanese        14.893 kbps
* Presentation Graphics         Japanese        0.052 kbps
FILES:
Name            Time In         Length          Size            Total Bitrate
----            -------         ------          ----            -------------
02264.M2TS      0:00:00.000     1:45:00.752     33 809 074 176  42 927
CHAPTERS:
Number          Time In         Length          Avg Video Rate  Max 1-Sec Rate  Max 1-Sec Time  Max 5-Sec Rate  Max 5-Sec Time  Max 10Sec Rate  Max 10Sec Time  Avg Frame Size  Max Frame Size  Max Frame Time
------          -------         ------          --------------  --------------  --------------  --------------  --------------  --------------  --------------  --------------  --------------  --------------
1               0:00:00.000     0:02:44.956     29 704 kbps     41 155 kbps     00:00:29.362    32 874 kbps     00:00:25.358    31 734 kbps     00:00:20.353    154 822 bytes   425 281 bytes   00:00:30.071
2               0:02:44.956     0:02:33.152     30 773 kbps     34 391 kbps     00:04:16.089    31 748 kbps     00:04:12.210    31 231 kbps     00:04:07.205    160 438 bytes   269 318 bytes   00:04:16.798
3               0:05:18.109     0:07:06.509     30 640 kbps     33 496 kbps     00:10:54.070    31 246 kbps     00:09:47.753    31 024 kbps     00:09:42.748    159 743 bytes   559 808 bytes   00:10:54.945
4               0:12:24.618     0:04:11.000     29 910 kbps     31 455 kbps     00:13:15.711    30 594 kbps     00:13:36.190    30 374 kbps     00:13:31.685    155 935 bytes   342 117 bytes   00:12:52.897
5               0:16:35.619     0:11:55.881     29 975 kbps     31 967 kbps     00:16:44.878    30 991 kbps     00:16:57.433    30 882 kbps     00:16:52.428    156 276 bytes   394 754 bytes   00:28:31.501
6               0:28:31.501     0:02:54.799     29 919 kbps     32 225 kbps     00:28:44.180    30 477 kbps     00:30:08.681    30 282 kbps     00:29:57.837    155 983 bytes   477 984 bytes   00:28:46.141
7               0:31:26.301     0:02:01.955     30 086 kbps     31 604 kbps     00:32:41.542    30 968 kbps     00:32:47.382    30 895 kbps     00:32:43.378    156 852 bytes   330 252 bytes   00:32:17.268
8               0:33:28.256     0:02:00.411     29 782 kbps     31 857 kbps     00:35:04.477    30 724 kbps     00:35:02.308    30 456 kbps     00:35:01.390    155 271 bytes   313 694 bytes   00:35:03.559
9               0:35:28.668     0:02:46.207     29 935 kbps     31 629 kbps     00:35:37.593    30 398 kbps     00:35:48.729    30 189 kbps     00:37:46.764    156 068 bytes   405 085 bytes   00:35:53.609
10              0:38:14.875     0:01:32.801     30 194 kbps     32 267 kbps     00:39:27.156    31 031 kbps     00:39:23.152    30 800 kbps     00:39:33.537    157 420 bytes   340 563 bytes   00:39:28.157
11              0:39:47.676     0:05:15.732     30 078 kbps     32 393 kbps     00:44:27.122    30 892 kbps     00:42:00.726    30 766 kbps     00:42:06.065    156 812 bytes   446 089 bytes   00:44:31.960
12              0:45:03.409     0:02:34.445     30 036 kbps     31 877 kbps     00:45:12.626    30 853 kbps     00:45:32.855    30 606 kbps     00:45:06.662    156 594 bytes   396 858 bytes   00:45:41.822
13              0:47:37.854     0:06:59.710     29 722 kbps     31 646 kbps     00:50:25.439    30 397 kbps     00:49:15.952    30 211 kbps     00:49:10.948    154 957 bytes   400 742 bytes   00:47:47.864
14              0:54:37.565     0:02:18.972     30 450 kbps     32 009 kbps     00:55:41.337    30 945 kbps     00:55:40.754    30 815 kbps     00:55:43.923    158 752 bytes   321 938 bytes   00:55:43.214
15              0:56:56.538     0:04:21.261     30 240 kbps     31 704 kbps     01:00:58.196    30 990 kbps     01:00:32.462    30 858 kbps     01:00:46.476    157 660 bytes   320 697 bytes   00:56:58.540
16              1:01:17.799     0:03:21.242     29 829 kbps     31 336 kbps     01:04:07.635    30 483 kbps     01:04:09.428    30 210 kbps     01:04:03.923    155 513 bytes   323 935 bytes   01:02:00.633
17              1:04:39.041     0:04:42.407     30 096 kbps     31 837 kbps     01:05:27.506    30 799 kbps     01:06:00.164    30 590 kbps     01:05:59.705    156 905 bytes   361 297 bytes   01:08:48.541
18              1:09:21.448     0:06:28.888     29 882 kbps     32 006 kbps     01:14:36.221    30 946 kbps     01:14:25.377    30 825 kbps     01:15:15.928    155 791 bytes   328 589 bytes   01:10:55.793
19              1:15:50.337     0:03:13.818     30 108 kbps     31 550 kbps     01:17:58.799    30 873 kbps     01:16:14.152    30 691 kbps     01:16:12.025    156 969 bytes   260 225 bytes   01:17:53.210
20              1:19:04.156     0:05:52.477     30 219 kbps     34 250 kbps     01:23:03.853    31 403 kbps     01:22:59.933    31 046 kbps     01:22:54.844    157 546 bytes   346 302 bytes   01:21:10.031
21              1:24:56.633     0:02:08.920     29 325 kbps     31 994 kbps     01:26:20.508    30 628 kbps     01:26:27.599    30 486 kbps     01:26:22.385    152 889 bytes   399 187 bytes   01:26:21.426
22              1:27:05.553     0:09:57.805     29 974 kbps     31 958 kbps     01:28:39.772    30 646 kbps     01:31:15.803    30 480 kbps     01:31:08.880    156 269 bytes   318 352 bytes   01:34:22.323
23              1:37:03.359     0:02:42.453     30 161 kbps     31 807 kbps     01:39:35.552    30 945 kbps     01:37:19.333    30 827 kbps     01:37:18.207    157 244 bytes   359 442 bytes   01:37:45.526
24              1:39:45.813     0:05:14.939     29 938 kbps     33 231 kbps     01:40:15.134    31 116 kbps     01:40:08.293    30 994 kbps     01:40:03.288    156 102 bytes   346 541 bytes   01:40:15.843
********************PLAYLIST: 00801.MPLS********************
Total   Video
Title                                                           Codec   Length  Movie Size      Disc Size       Bitrate Bitrate Main Audio Track                          Secondary Audio Track
-----                                                           ------  ------- --------------  --------------  ------- ------- ------------------                        ---------------------
00801.MPLS                                                      AVC     1:45:00 33 809 074 176  36 991 828 986  42.93   30.04   DTS-HD Master 4.0 3013Kbps (48kHz/24-bit)
DISC INFO:
Disc Title:     EDWARD_SCISSORHANDS_REMASTERED
Disc Size:      36 991 828 986 bytes
Protection:     AACS
BD-Java:        Yes
BDInfo:         0.5.8
PLAYLIST REPORT:
Name:                   00801.MPLS
Length:                 1:45:00.752 (h:m:s.ms)
Size:                   33 809 074 176 bytes
Total Bitrate:          42.93 Mbps
(*) Indicates included stream hidden by this playlist.
VIDEO:
Codec                   Bitrate             Description
-----                   -------             -----------
MPEG-4 AVC Video        30042 kbps          1080p / 23.976 fps / 16:9 / High Profile 4.1
AUDIO:
Codec                           Language        Bitrate         Description
-----                           --------        -------         -----------
DTS-HD Master Audio             English         3013 kbps       4.0 / 48 kHz / 3013 kbps / 24-bit (DTS Core: 4.0 / 48 kHz / 1509 kbps / 24-bit)
* Dolby Digital Audio           Spanish         192 kbps        2.0 / 48 kHz / 192 kbps / DN -4dB / Dolby Surround
* DTS Audio                     French          768 kbps        5.1 / 48 kHz / 768 kbps / 24-bit
* DTS Audio                     Spanish         768 kbps        5.1 / 48 kHz / 768 kbps / 24-bit
* DTS Audio                     German          768 kbps        5.1 / 48 kHz / 768 kbps / 24-bit
* DTS Audio                     Italian         768 kbps        5.1 / 48 kHz / 768 kbps / 24-bit
DTS Audio                       Japanese        768 kbps        5.1 / 48 kHz / 768 kbps / 24-bit
* Dolby Digital Audio           Portuguese      448 kbps        5.1 / 48 kHz / 448 kbps / DN -4dB
* DTS Audio                     Russian         768 kbps        5.1 / 48 kHz / 768 kbps / 24-bit
* Dolby Digital Audio           Czech           224 kbps        2.0 / 48 kHz / 224 kbps / DN -4dB
* Dolby Digital Audio           Polish          448 kbps        5.1 / 48 kHz / 448 kbps / DN -4dB
* Dolby Digital Audio           Thai            224 kbps        2.0 / 48 kHz / 224 kbps / Dolby Surround
Dolby Digital Audio             English         224 kbps        2.0 / 48 kHz / 224 kbps / DN -4dB
Dolby Digital Audio             English         224 kbps        2.0 / 48 kHz / 224 kbps / DN -4dB
SUBTITLES:
Codec                           Language        Bitrate         Description
-----                           --------        -------         -----------
Presentation Graphics           English         48.592 kbps
* Presentation Graphics         Spanish         25.926 kbps
* Presentation Graphics         French          20.498 kbps
* Presentation Graphics         Spanish         23.989 kbps
* Presentation Graphics         Danish          17.838 kbps
* Presentation Graphics         Dutch           21.845 kbps
* Presentation Graphics         Finnish         19.143 kbps
* Presentation Graphics         German          24.304 kbps
* Presentation Graphics         Italian         22.583 kbps
Presentation Graphics           Japanese        15.161 kbps
* Presentation Graphics         Norwegian       17.698 kbps
* Presentation Graphics         Portuguese      25.167 kbps
* Presentation Graphics         Russian         25.801 kbps
* Presentation Graphics         Swedish         14.523 kbps
* Presentation Graphics         Chinese         48.820 kbps
* Presentation Graphics         Czech           24.182 kbps
* Presentation Graphics         Greek           22.376 kbps
* Presentation Graphics         Korean          14.461 kbps
* Presentation Graphics         Chinese         22.599 kbps
* Presentation Graphics         Chinese         16.251 kbps
* Presentation Graphics         Polish          25.588 kbps
* Presentation Graphics         Thai            14.517 kbps
* Presentation Graphics         English         14.351 kbps
* Presentation Graphics         French          17.831 kbps
* Presentation Graphics         German          17.425 kbps
Presentation Graphics           Japanese        11.890 kbps
* Presentation Graphics         English         19.747 kbps
* Presentation Graphics         French          21.749 kbps
* Presentation Graphics         German          23.412 kbps
Presentation Graphics           Japanese        14.893 kbps
Presentation Graphics           Japanese        0.052 kbps
FILES:
Name            Time In         Length          Size            Total Bitrate
----            -------         ------          ----            -------------
02264.M2TS      0:00:00.000     1:45:00.752     33 809 074 176  42 927
CHAPTERS:
Number          Time In         Length          Avg Video Rate  Max 1-Sec Rate  Max 1-Sec Time  Max 5-Sec Rate  Max 5-Sec Time  Max 10Sec Rate  Max 10Sec Time  Avg Frame Size  Max Frame Size  Max Frame Time
------          -------         ------          --------------  --------------  --------------  --------------  --------------  --------------  --------------  --------------  --------------  --------------
1               0:00:00.000     0:02:44.956     29 704 kbps     41 155 kbps     00:00:29.362    32 874 kbps     00:00:25.358    31 734 kbps     00:00:20.353    154 822 bytes   425 281 bytes   00:00:30.071
2               0:02:44.956     0:02:33.152     30 773 kbps     34 391 kbps     00:04:16.089    31 748 kbps     00:04:12.210    31 231 kbps     00:04:07.205    160 438 bytes   269 318 bytes   00:04:16.798
3               0:05:18.109     0:07:06.509     30 640 kbps     33 496 kbps     00:10:54.070    31 246 kbps     00:09:47.753    31 024 kbps     00:09:42.748    159 743 bytes   559 808 bytes   00:10:54.945
4               0:12:24.618     0:04:11.000     29 910 kbps     31 455 kbps     00:13:15.711    30 594 kbps     00:13:36.190    30 374 kbps     00:13:31.685    155 935 bytes   342 117 bytes   00:12:52.897
5               0:16:35.619     0:11:55.881     29 975 kbps     31 967 kbps     00:16:44.878    30 991 kbps     00:16:57.433    30 882 kbps     00:16:52.428    156 276 bytes   394 754 bytes   00:28:31.501
6               0:28:31.501     0:02:54.799     29 919 kbps     32 225 kbps     00:28:44.180    30 477 kbps     00:30:08.681    30 282 kbps     00:29:57.837    155 983 bytes   477 984 bytes   00:28:46.141
7               0:31:26.301     0:02:01.955     30 086 kbps     31 604 kbps     00:32:41.542    30 968 kbps     00:32:47.382    30 895 kbps     00:32:43.378    156 852 bytes   330 252 bytes   00:32:17.268
8               0:33:28.256     0:02:00.411     29 782 kbps     31 857 kbps     00:35:04.477    30 724 kbps     00:35:02.308    30 456 kbps     00:35:01.390    155 271 bytes   313 694 bytes   00:35:03.559
9               0:35:28.668     0:02:46.207     29 935 kbps     31 629 kbps     00:35:37.593    30 398 kbps     00:35:48.729    30 189 kbps     00:37:46.764    156 068 bytes   405 085 bytes   00:35:53.609
10              0:38:14.875     0:01:32.801     30 194 kbps     32 267 kbps     00:39:27.156    31 031 kbps     00:39:23.152    30 800 kbps     00:39:33.537    157 420 bytes   340 563 bytes   00:39:28.157
11              0:39:47.676     0:05:15.732     30 078 kbps     32 393 kbps     00:44:27.122    30 892 kbps     00:42:00.726    30 766 kbps     00:42:06.065    156 812 bytes   446 089 bytes   00:44:31.960
12              0:45:03.409     0:02:34.445     30 036 kbps     31 877 kbps     00:45:12.626    30 853 kbps     00:45:32.855    30 606 kbps     00:45:06.662    156 594 bytes   396 858 bytes   00:45:41.822
13              0:47:37.854     0:06:59.710     29 722 kbps     31 646 kbps     00:50:25.439    30 397 kbps     00:49:15.952    30 211 kbps     00:49:10.948    154 957 bytes   400 742 bytes   00:47:47.864
14              0:54:37.565     0:02:18.972     30 450 kbps     32 009 kbps     00:55:41.337    30 945 kbps     00:55:40.754    30 815 kbps     00:55:43.923    158 752 bytes   321 938 bytes   00:55:43.214
15              0:56:56.538     0:04:21.261     30 240 kbps     31 704 kbps     01:00:58.196    30 990 kbps     01:00:32.462    30 858 kbps     01:00:46.476    157 660 bytes   320 697 bytes   00:56:58.540
16              1:01:17.799     0:03:21.242     29 829 kbps     31 336 kbps     01:04:07.635    30 483 kbps     01:04:09.428    30 210 kbps     01:04:03.923    155 513 bytes   323 935 bytes   01:02:00.633
17              1:04:39.041     0:04:42.407     30 096 kbps     31 837 kbps     01:05:27.506    30 799 kbps     01:06:00.164    30 590 kbps     01:05:59.705    156 905 bytes   361 297 bytes   01:08:48.541
18              1:09:21.448     0:06:28.888     29 882 kbps     32 006 kbps     01:14:36.221    30 946 kbps     01:14:25.377    30 825 kbps     01:15:15.928    155 791 bytes   328 589 bytes   01:10:55.793
19              1:15:50.337     0:03:13.818     30 108 kbps     31 550 kbps     01:17:58.799    30 873 kbps     01:16:14.152    30 691 kbps     01:16:12.025    156 969 bytes   260 225 bytes   01:17:53.210
20              1:19:04.156     0:05:52.477     30 219 kbps     34 250 kbps     01:23:03.853    31 403 kbps     01:22:59.933    31 046 kbps     01:22:54.844    157 546 bytes   346 302 bytes   01:21:10.031
21              1:24:56.633     0:02:08.920     29 325 kbps     31 994 kbps     01:26:20.508    30 628 kbps     01:26:27.599    30 486 kbps     01:26:22.385    152 889 bytes   399 187 bytes   01:26:21.426
22              1:27:05.553     0:09:57.805     29 974 kbps     31 958 kbps     01:28:39.772    30 646 kbps     01:31:15.803    30 480 kbps     01:31:08.880    156 269 bytes   318 352 bytes   01:34:22.323
23              1:37:03.359     0:02:42.453     30 161 kbps     31 807 kbps     01:39:35.552    30 945 kbps     01:37:19.333    30 827 kbps     01:37:18.207    157 244 bytes   359 442 bytes   01:37:45.526
24              1:39:45.813     0:05:14.939     29 938 kbps     33 231 kbps     01:40:15.134    31 116 kbps     01:40:08.293    30 994 kbps     01:40:03.288    156 102 bytes   346 541 bytes   01:40:15.843
********************PLAYLIST: 00850.MPLS********************
Total   Video
Title                                                           Codec   Length  Movie Size      Disc Size       Bitrate Bitrate Main Audio Track                          Secondary Audio Track
-----                                                           ------  ------- --------------  --------------  ------- ------- ------------------                        ---------------------
00850.MPLS                                                      AVC     1:45:00 33 809 074 176  36 991 828 986  42.93   30.04   DTS-HD Master 4.0 3013Kbps (48kHz/24-bit)
DISC INFO:
Disc Title:     EDWARD_SCISSORHANDS_REMASTERED
Disc Size:      36 991 828 986 bytes
Protection:     AACS
BD-Java:        Yes
BDInfo:         0.5.8
PLAYLIST REPORT:
Name:                   00850.MPLS
Length:                 1:45:00.752 (h:m:s.ms)
Size:                   33 809 074 176 bytes
Total Bitrate:          42.93 Mbps
(*) Indicates included stream hidden by this playlist.
VIDEO:
Codec                   Bitrate             Description
-----                   -------             -----------
MPEG-4 AVC Video        30042 kbps          1080p / 23.976 fps / 16:9 / High Profile 4.1
AUDIO:
Codec                           Language        Bitrate         Description
-----                           --------        -------         -----------
DTS-HD Master Audio             English         3013 kbps       4.0 / 48 kHz / 3013 kbps / 24-bit (DTS Core: 4.0 / 48 kHz / 1509 kbps / 24-bit)
Dolby Digital Audio             Spanish         192 kbps        2.0 / 48 kHz / 192 kbps / DN -4dB / Dolby Surround
DTS Audio                       French          768 kbps        5.1 / 48 kHz / 768 kbps / 24-bit
DTS Audio                       Spanish         768 kbps        5.1 / 48 kHz / 768 kbps / 24-bit
DTS Audio                       German          768 kbps        5.1 / 48 kHz / 768 kbps / 24-bit
DTS Audio                       Italian         768 kbps        5.1 / 48 kHz / 768 kbps / 24-bit
* DTS Audio                     Japanese        768 kbps        5.1 / 48 kHz / 768 kbps / 24-bit
Dolby Digital Audio             Portuguese      448 kbps        5.1 / 48 kHz / 448 kbps / DN -4dB
DTS Audio                       Russian         768 kbps        5.1 / 48 kHz / 768 kbps / 24-bit
Dolby Digital Audio             Czech           224 kbps        2.0 / 48 kHz / 224 kbps / DN -4dB
Dolby Digital Audio             Polish          448 kbps        5.1 / 48 kHz / 448 kbps / DN -4dB
Dolby Digital Audio             Thai            224 kbps        2.0 / 48 kHz / 224 kbps / Dolby Surround
Dolby Digital Audio             English         224 kbps        2.0 / 48 kHz / 224 kbps / DN -4dB
Dolby Digital Audio             English         224 kbps        2.0 / 48 kHz / 224 kbps / DN -4dB
SUBTITLES:
Codec                           Language        Bitrate         Description
-----                           --------        -------         -----------
Presentation Graphics           English         48.592 kbps
Presentation Graphics           Spanish         25.926 kbps
Presentation Graphics           French          20.498 kbps
Presentation Graphics           Spanish         23.989 kbps
Presentation Graphics           Danish          17.838 kbps
Presentation Graphics           Dutch           21.845 kbps
Presentation Graphics           Finnish         19.143 kbps
Presentation Graphics           German          24.304 kbps
Presentation Graphics           Italian         22.583 kbps
* Presentation Graphics         Japanese        15.161 kbps
Presentation Graphics           Norwegian       17.698 kbps
Presentation Graphics           Portuguese      25.167 kbps
Presentation Graphics           Russian         25.801 kbps
Presentation Graphics           Swedish         14.523 kbps
Presentation Graphics           Chinese         48.820 kbps
Presentation Graphics           Czech           24.182 kbps
Presentation Graphics           Greek           22.376 kbps
Presentation Graphics           Korean          14.461 kbps
Presentation Graphics           Chinese         22.599 kbps
Presentation Graphics           Chinese         16.251 kbps
Presentation Graphics           Polish          25.588 kbps
Presentation Graphics           Thai            14.517 kbps
Presentation Graphics           English         14.351 kbps
Presentation Graphics           French          17.831 kbps
Presentation Graphics           German          17.425 kbps
* Presentation Graphics         Japanese        11.890 kbps
Presentation Graphics           English         19.747 kbps
Presentation Graphics           French          21.749 kbps
Presentation Graphics           German          23.412 kbps
* Presentation Graphics         Japanese        14.893 kbps
* Presentation Graphics         Japanese        0.052 kbps
FILES:
Name            Time In         Length          Size            Total Bitrate
----            -------         ------          ----            -------------
02264.M2TS      0:00:00.000     1:45:00.752     33 809 074 176  42 927
CHAPTERS:
Number          Time In         Length          Avg Video Rate  Max 1-Sec Rate  Max 1-Sec Time  Max 5-Sec Rate  Max 5-Sec Time  Max 10Sec Rate  Max 10Sec Time  Avg Frame Size  Max Frame Size  Max Frame Time
------          -------         ------          --------------  --------------  --------------  --------------  --------------  --------------  --------------  --------------  --------------  --------------
1               0:00:00.000     0:02:44.956     29 704 kbps     41 155 kbps     00:00:29.362    32 874 kbps     00:00:25.358    31 734 kbps     00:00:20.353    154 822 bytes   425 281 bytes   00:00:30.071
2               0:02:44.956     0:02:33.152     30 773 kbps     34 391 kbps     00:04:16.089    31 748 kbps     00:04:12.210    31 231 kbps     00:04:07.205    160 438 bytes   269 318 bytes   00:04:16.798
3               0:05:18.109     0:07:06.509     30 640 kbps     33 496 kbps     00:10:54.070    31 246 kbps     00:09:47.753    31 024 kbps     00:09:42.748    159 743 bytes   559 808 bytes   00:10:54.945
4               0:12:24.618     0:04:11.000     29 910 kbps     31 455 kbps     00:13:15.711    30 594 kbps     00:13:36.190    30 374 kbps     00:13:31.685    155 935 bytes   342 117 bytes   00:12:52.897
5               0:16:35.619     0:11:55.881     29 975 kbps     31 967 kbps     00:16:44.878    30 991 kbps     00:16:57.433    30 882 kbps     00:16:52.428    156 276 bytes   394 754 bytes   00:28:31.501
6               0:28:31.501     0:02:54.799     29 919 kbps     32 225 kbps     00:28:44.180    30 477 kbps     00:30:08.681    30 282 kbps     00:29:57.837    155 983 bytes   477 984 bytes   00:28:46.141
7               0:31:26.301     0:02:01.955     30 086 kbps     31 604 kbps     00:32:41.542    30 968 kbps     00:32:47.382    30 895 kbps     00:32:43.378    156 852 bytes   330 252 bytes   00:32:17.268
8               0:33:28.256     0:02:00.411     29 782 kbps     31 857 kbps     00:35:04.477    30 724 kbps     00:35:02.308    30 456 kbps     00:35:01.390    155 271 bytes   313 694 bytes   00:35:03.559
9               0:35:28.668     0:02:46.207     29 935 kbps     31 629 kbps     00:35:37.593    30 398 kbps     00:35:48.729    30 189 kbps     00:37:46.764    156 068 bytes   405 085 bytes   00:35:53.609
10              0:38:14.875     0:01:32.801     30 194 kbps     32 267 kbps     00:39:27.156    31 031 kbps     00:39:23.152    30 800 kbps     00:39:33.537    157 420 bytes   340 563 bytes   00:39:28.157
11              0:39:47.676     0:05:15.732     30 078 kbps     32 393 kbps     00:44:27.122    30 892 kbps     00:42:00.726    30 766 kbps     00:42:06.065    156 812 bytes   446 089 bytes   00:44:31.960
12              0:45:03.409     0:02:34.445     30 036 kbps     31 877 kbps     00:45:12.626    30 853 kbps     00:45:32.855    30 606 kbps     00:45:06.662    156 594 bytes   396 858 bytes   00:45:41.822
13              0:47:37.854     0:06:59.710     29 722 kbps     31 646 kbps     00:50:25.439    30 397 kbps     00:49:15.952    30 211 kbps     00:49:10.948    154 957 bytes   400 742 bytes   00:47:47.864
14              0:54:37.565     0:02:18.972     30 450 kbps     32 009 kbps     00:55:41.337    30 945 kbps     00:55:40.754    30 815 kbps     00:55:43.923    158 752 bytes   321 938 bytes   00:55:43.214
15              0:56:56.538     0:04:21.261     30 240 kbps     31 704 kbps     01:00:58.196    30 990 kbps     01:00:32.462    30 858 kbps     01:00:46.476    157 660 bytes   320 697 bytes   00:56:58.540
16              1:01:17.799     0:03:21.242     29 829 kbps     31 336 kbps     01:04:07.635    30 483 kbps     01:04:09.428    30 210 kbps     01:04:03.923    155 513 bytes   323 935 bytes   01:02:00.633
17              1:04:39.041     0:04:42.407     30 096 kbps     31 837 kbps     01:05:27.506    30 799 kbps     01:06:00.164    30 590 kbps     01:05:59.705    156 905 bytes   361 297 bytes   01:08:48.541
18              1:09:21.448     0:06:28.888     29 882 kbps     32 006 kbps     01:14:36.221    30 946 kbps     01:14:25.377    30 825 kbps     01:15:15.928    155 791 bytes   328 589 bytes   01:10:55.793
19              1:15:50.337     0:03:13.818     30 108 kbps     31 550 kbps     01:17:58.799    30 873 kbps     01:16:14.152    30 691 kbps     01:16:12.025    156 969 bytes   260 225 bytes   01:17:53.210
20              1:19:04.156     0:05:52.477     30 219 kbps     34 250 kbps     01:23:03.853    31 403 kbps     01:22:59.933    31 046 kbps     01:22:54.844    157 546 bytes   346 302 bytes   01:21:10.031
21              1:24:56.633     0:02:08.920     29 325 kbps     31 994 kbps     01:26:20.508    30 628 kbps     01:26:27.599    30 486 kbps     01:26:22.385    152 889 bytes   399 187 bytes   01:26:21.426
22              1:27:05.553     0:09:57.805     29 974 kbps     31 958 kbps     01:28:39.772    30 646 kbps     01:31:15.803    30 480 kbps     01:31:08.880    156 269 bytes   318 352 bytes   01:34:22.323
23              1:37:03.359     0:02:42.453     30 161 kbps     31 807 kbps     01:39:35.552    30 945 kbps     01:37:19.333    30 827 kbps     01:37:18.207    157 244 bytes   359 442 bytes   01:37:45.526
24              1:39:45.813     0:05:14.939     29 938 kbps     33 231 kbps     01:40:15.134    31 116 kbps     01:40:08.293    30 994 kbps     01:40:03.288    156 102 bytes   346 541 bytes   01:40:15.843
********************PLAYLIST: 00851.MPLS********************
Total   Video
Title                                                           Codec   Length  Movie Size      Disc Size       Bitrate Bitrate Main Audio Track                          Secondary Audio Track
-----                                                           ------  ------- --------------  --------------  ------- ------- ------------------                        ---------------------
00851.MPLS                                                      AVC     1:45:00 33 809 074 176  36 991 828 986  42.93   30.04   DTS-HD Master 4.0 3013Kbps (48kHz/24-bit)
DISC INFO:
Disc Title:     EDWARD_SCISSORHANDS_REMASTERED
Disc Size:      36 991 828 986 bytes
Protection:     AACS
BD-Java:        Yes
BDInfo:         0.5.8
PLAYLIST REPORT:
Name:                   00851.MPLS
Length:                 1:45:00.752 (h:m:s.ms)
Size:                   33 809 074 176 bytes
Total Bitrate:          42.93 Mbps
(*) Indicates included stream hidden by this playlist.
VIDEO:
Codec                   Bitrate             Description
-----                   -------             -----------
MPEG-4 AVC Video        30042 kbps          1080p / 23.976 fps / 16:9 / High Profile 4.1
AUDIO:
Codec                           Language        Bitrate         Description
-----                           --------        -------         -----------
DTS-HD Master Audio             English         3013 kbps       4.0 / 48 kHz / 3013 kbps / 24-bit (DTS Core: 4.0 / 48 kHz / 1509 kbps / 24-bit)
* Dolby Digital Audio           Spanish         192 kbps        2.0 / 48 kHz / 192 kbps / DN -4dB / Dolby Surround
* DTS Audio                     French          768 kbps        5.1 / 48 kHz / 768 kbps / 24-bit
* DTS Audio                     Spanish         768 kbps        5.1 / 48 kHz / 768 kbps / 24-bit
* DTS Audio                     German          768 kbps        5.1 / 48 kHz / 768 kbps / 24-bit
* DTS Audio                     Italian         768 kbps        5.1 / 48 kHz / 768 kbps / 24-bit
DTS Audio                       Japanese        768 kbps        5.1 / 48 kHz / 768 kbps / 24-bit
* Dolby Digital Audio           Portuguese      448 kbps        5.1 / 48 kHz / 448 kbps / DN -4dB
* DTS Audio                     Russian         768 kbps        5.1 / 48 kHz / 768 kbps / 24-bit
* Dolby Digital Audio           Czech           224 kbps        2.0 / 48 kHz / 224 kbps / DN -4dB
* Dolby Digital Audio           Polish          448 kbps        5.1 / 48 kHz / 448 kbps / DN -4dB
* Dolby Digital Audio           Thai            224 kbps        2.0 / 48 kHz / 224 kbps / Dolby Surround
Dolby Digital Audio             English         224 kbps        2.0 / 48 kHz / 224 kbps / DN -4dB
Dolby Digital Audio             English         224 kbps        2.0 / 48 kHz / 224 kbps / DN -4dB
SUBTITLES:
Codec                           Language        Bitrate         Description
-----                           --------        -------         -----------
Presentation Graphics           English         48.592 kbps
* Presentation Graphics         Spanish         25.926 kbps
* Presentation Graphics         French          20.498 kbps
* Presentation Graphics         Spanish         23.989 kbps
* Presentation Graphics         Danish          17.838 kbps
* Presentation Graphics         Dutch           21.845 kbps
* Presentation Graphics         Finnish         19.143 kbps
* Presentation Graphics         German          24.304 kbps
* Presentation Graphics         Italian         22.583 kbps
Presentation Graphics           Japanese        15.161 kbps
* Presentation Graphics         Norwegian       17.698 kbps
* Presentation Graphics         Portuguese      25.167 kbps
* Presentation Graphics         Russian         25.801 kbps
* Presentation Graphics         Swedish         14.523 kbps
* Presentation Graphics         Chinese         48.820 kbps
* Presentation Graphics         Czech           24.182 kbps
* Presentation Graphics         Greek           22.376 kbps
* Presentation Graphics         Korean          14.461 kbps
* Presentation Graphics         Chinese         22.599 kbps
* Presentation Graphics         Chinese         16.251 kbps
* Presentation Graphics         Polish          25.588 kbps
* Presentation Graphics         Thai            14.517 kbps
* Presentation Graphics         English         14.351 kbps
* Presentation Graphics         French          17.831 kbps
* Presentation Graphics         German          17.425 kbps
Presentation Graphics           Japanese        11.890 kbps
* Presentation Graphics         English         19.747 kbps
* Presentation Graphics         French          21.749 kbps
* Presentation Graphics         German          23.412 kbps
Presentation Graphics           Japanese        14.893 kbps
Presentation Graphics           Japanese        0.052 kbps
FILES:
Name            Time In         Length          Size            Total Bitrate
----            -------         ------          ----            -------------
02264.M2TS      0:00:00.000     1:45:00.752     33 809 074 176  42 927
CHAPTERS:
Number          Time In         Length          Avg Video Rate  Max 1-Sec Rate  Max 1-Sec Time  Max 5-Sec Rate  Max 5-Sec Time  Max 10Sec Rate  Max 10Sec Time  Avg Frame Size  Max Frame Size  Max Frame Time
------          -------         ------          --------------  --------------  --------------  --------------  --------------  --------------  --------------  --------------  --------------  --------------
1               0:00:00.000     0:02:44.956     29 704 kbps     41 155 kbps     00:00:29.362    32 874 kbps     00:00:25.358    31 734 kbps     00:00:20.353    154 822 bytes   425 281 bytes   00:00:30.071
2               0:02:44.956     0:02:33.152     30 773 kbps     34 391 kbps     00:04:16.089    31 748 kbps     00:04:12.210    31 231 kbps     00:04:07.205    160 438 bytes   269 318 bytes   00:04:16.798
3               0:05:18.109     0:07:06.509     30 640 kbps     33 496 kbps     00:10:54.070    31 246 kbps     00:09:47.753    31 024 kbps     00:09:42.748    159 743 bytes   559 808 bytes   00:10:54.945
4               0:12:24.618     0:04:11.000     29 910 kbps     31 455 kbps     00:13:15.711    30 594 kbps     00:13:36.190    30 374 kbps     00:13:31.685    155 935 bytes   342 117 bytes   00:12:52.897
5               0:16:35.619     0:11:55.881     29 975 kbps     31 967 kbps     00:16:44.878    30 991 kbps     00:16:57.433    30 882 kbps     00:16:52.428    156 276 bytes   394 754 bytes   00:28:31.501
6               0:28:31.501     0:02:54.799     29 919 kbps     32 225 kbps     00:28:44.180    30 477 kbps     00:30:08.681    30 282 kbps     00:29:57.837    155 983 bytes   477 984 bytes   00:28:46.141
7               0:31:26.301     0:02:01.955     30 086 kbps     31 604 kbps     00:32:41.542    30 968 kbps     00:32:47.382    30 895 kbps     00:32:43.378    156 852 bytes   330 252 bytes   00:32:17.268
8               0:33:28.256     0:02:00.411     29 782 kbps     31 857 kbps     00:35:04.477    30 724 kbps     00:35:02.308    30 456 kbps     00:35:01.390    155 271 bytes   313 694 bytes   00:35:03.559
9               0:35:28.668     0:02:46.207     29 935 kbps     31 629 kbps     00:35:37.593    30 398 kbps     00:35:48.729    30 189 kbps     00:37:46.764    156 068 bytes   405 085 bytes   00:35:53.609
10              0:38:14.875     0:01:32.801     30 194 kbps     32 267 kbps     00:39:27.156    31 031 kbps     00:39:23.152    30 800 kbps     00:39:33.537    157 420 bytes   340 563 bytes   00:39:28.157
11              0:39:47.676     0:05:15.732     30 078 kbps     32 393 kbps     00:44:27.122    30 892 kbps     00:42:00.726    30 766 kbps     00:42:06.065    156 812 bytes   446 089 bytes   00:44:31.960
12              0:45:03.409     0:02:34.445     30 036 kbps     31 877 kbps     00:45:12.626    30 853 kbps     00:45:32.855    30 606 kbps     00:45:06.662    156 594 bytes   396 858 bytes   00:45:41.822
13              0:47:37.854     0:06:59.710     29 722 kbps     31 646 kbps     00:50:25.439    30 397 kbps     00:49:15.952    30 211 kbps     00:49:10.948    154 957 bytes   400 742 bytes   00:47:47.864
14              0:54:37.565     0:02:18.972     30 450 kbps     32 009 kbps     00:55:41.337    30 945 kbps     00:55:40.754    30 815 kbps     00:55:43.923    158 752 bytes   321 938 bytes   00:55:43.214
15              0:56:56.538     0:04:21.261     30 240 kbps     31 704 kbps     01:00:58.196    30 990 kbps     01:00:32.462    30 858 kbps     01:00:46.476    157 660 bytes   320 697 bytes   00:56:58.540
16              1:01:17.799     0:03:21.242     29 829 kbps     31 336 kbps     01:04:07.635    30 483 kbps     01:04:09.428    30 210 kbps     01:04:03.923    155 513 bytes   323 935 bytes   01:02:00.633
17              1:04:39.041     0:04:42.407     30 096 kbps     31 837 kbps     01:05:27.506    30 799 kbps     01:06:00.164    30 590 kbps     01:05:59.705    156 905 bytes   361 297 bytes   01:08:48.541
18              1:09:21.448     0:06:28.888     29 882 kbps     32 006 kbps     01:14:36.221    30 946 kbps     01:14:25.377    30 825 kbps     01:15:15.928    155 791 bytes   328 589 bytes   01:10:55.793
19              1:15:50.337     0:03:13.818     30 108 kbps     31 550 kbps     01:17:58.799    30 873 kbps     01:16:14.152    30 691 kbps     01:16:12.025    156 969 bytes   260 225 bytes   01:17:53.210
20              1:19:04.156     0:05:52.477     30 219 kbps     34 250 kbps     01:23:03.853    31 403 kbps     01:22:59.933    31 046 kbps     01:22:54.844    157 546 bytes   346 302 bytes   01:21:10.031
21              1:24:56.633     0:02:08.920     29 325 kbps     31 994 kbps     01:26:20.508    30 628 kbps     01:26:27.599    30 486 kbps     01:26:22.385    152 889 bytes   399 187 bytes   01:26:21.426
22              1:27:05.553     0:09:57.805     29 974 kbps     31 958 kbps     01:28:39.772    30 646 kbps     01:31:15.803    30 480 kbps     01:31:08.880    156 269 bytes   318 352 bytes   01:34:22.323
23              1:37:03.359     0:02:42.453     30 161 kbps     31 807 kbps     01:39:35.552    30 945 kbps     01:37:19.333    30 827 kbps     01:37:18.207    157 244 bytes   359 442 bytes   01:37:45.526
24              1:39:45.813     0:05:14.939     29 938 kbps     33 231 kbps     01:40:15.134    31 116 kbps     01:40:08.293    30 994 kbps     01:40:03.288    156 102 bytes   346 541 bytes   01:40:15.843
********************PLAYLIST: 00350.MPLS********************
Total   Video
Title                                                           Codec   Length  Movie Size      Disc Size       Bitrate Bitrate Main Audio Track                          Secondary Audio Track
-----                                                           ------  ------- --------------  --------------  ------- ------- ------------------                        ---------------------
00350.MPLS                                                      AVC     0:04:39 1 121 782 848   36 991 828 986  32.15   30.05   DD AC3 2.0 224Kbps
DISC INFO:
Disc Title:     EDWARD_SCISSORHANDS_REMASTERED
Disc Size:      36 991 828 986 bytes
Protection:     AACS
BD-Java:        Yes
BDInfo:         0.5.8
PLAYLIST REPORT:
Name:                   00350.MPLS
Length:                 0:04:39.112 (h:m:s.ms)
Size:                   1 121 782 848 bytes
Total Bitrate:          32.15 Mbps
(*) Indicates included stream hidden by this playlist.
VIDEO:
Codec                   Bitrate             Description
-----                   -------             -----------
MPEG-4 AVC Video        30046 kbps          1080p / 23.976 fps / 16:9 / High Profile 4.1
AUDIO:
Codec                           Language        Bitrate         Description
-----                           --------        -------         -----------
Dolby Digital Audio             English         224 kbps        2.0 / 48 kHz / 224 kbps / DN -4dB
SUBTITLES:
Codec                           Language        Bitrate         Description
-----                           --------        -------         -----------
Presentation Graphics           English         33.021 kbps
Presentation Graphics           French          40.152 kbps
Presentation Graphics           Spanish         29.707 kbps
Presentation Graphics           Danish          31.439 kbps
Presentation Graphics           Dutch           37.199 kbps
Presentation Graphics           Finnish         31.742 kbps
Presentation Graphics           German          43.830 kbps
Presentation Graphics           Italian         30.064 kbps
* Presentation Graphics         Japanese        54.329 kbps
Presentation Graphics           Norwegian       28.788 kbps
Presentation Graphics           Swedish         24.467 kbps
FILES:
Name            Time In         Length          Size            Total Bitrate
----            -------         ------          ----            -------------
02406.M2TS      0:00:00.000     0:04:39.112     1 121 782 848   32 153
CHAPTERS:
Number          Time In         Length          Avg Video Rate  Max 1-Sec Rate  Max 1-Sec Time  Max 5-Sec Rate  Max 5-Sec Time  Max 10Sec Rate  Max 10Sec Time  Avg Frame Size  Max Frame Size  Max Frame Time
------          -------         ------          --------------  --------------  --------------  --------------  --------------  --------------  --------------  --------------  --------------  --------------
1               0:00:00.000     0:04:39.112     30 048 kbps     40 440 kbps     00:00:55.722    39 442 kbps     00:03:32.212    39 155 kbps     00:03:31.961    156 636 bytes   305 748 bytes   00:00:56.681
********************PLAYLIST: 00351.MPLS********************
Total   Video
Title                                                           Codec   Length  Movie Size      Disc Size       Bitrate Bitrate Main Audio Track                          Secondary Audio Track
-----                                                           ------  ------- --------------  --------------  ------- ------- ------------------                        ---------------------
00351.MPLS                                                      AVC     0:04:39 1 121 782 848   36 991 828 986  32.15   30.05   DD AC3 2.0 224Kbps
DISC INFO:
Disc Title:     EDWARD_SCISSORHANDS_REMASTERED
Disc Size:      36 991 828 986 bytes
Protection:     AACS
BD-Java:        Yes
BDInfo:         0.5.8
PLAYLIST REPORT:
Name:                   00351.MPLS
Length:                 0:04:39.112 (h:m:s.ms)
Size:                   1 121 782 848 bytes
Total Bitrate:          32.15 Mbps
(*) Indicates included stream hidden by this playlist.
VIDEO:
Codec                   Bitrate             Description
-----                   -------             -----------
MPEG-4 AVC Video        30046 kbps          1080p / 23.976 fps / 16:9 / High Profile 4.1
AUDIO:
Codec                           Language        Bitrate         Description
-----                           --------        -------         -----------
Dolby Digital Audio             English         224 kbps        2.0 / 48 kHz / 224 kbps / DN -4dB
SUBTITLES:
Codec                           Language        Bitrate         Description
-----                           --------        -------         -----------
* Presentation Graphics         English         33.021 kbps
* Presentation Graphics         French          40.152 kbps
* Presentation Graphics         Spanish         29.707 kbps
* Presentation Graphics         Danish          31.439 kbps
* Presentation Graphics         Dutch           37.199 kbps
* Presentation Graphics         Finnish         31.742 kbps
* Presentation Graphics         German          43.830 kbps
* Presentation Graphics         Italian         30.064 kbps
Presentation Graphics           Japanese        54.329 kbps
* Presentation Graphics         Norwegian       28.788 kbps
* Presentation Graphics         Swedish         24.467 kbps
FILES:
Name            Time In         Length          Size            Total Bitrate
----            -------         ------          ----            -------------
02406.M2TS      0:00:00.000     0:04:39.112     1 121 782 848   32 153
CHAPTERS:
Number          Time In         Length          Avg Video Rate  Max 1-Sec Rate  Max 1-Sec Time  Max 5-Sec Rate  Max 5-Sec Time  Max 10Sec Rate  Max 10Sec Time  Avg Frame Size  Max Frame Size  Max Frame Time
------          -------         ------          --------------  --------------  --------------  --------------  --------------  --------------  --------------  --------------  --------------  --------------
1               0:00:00.000     0:04:39.112     30 048 kbps     40 440 kbps     00:00:55.722    39 442 kbps     00:03:32.212    39 155 kbps     00:03:31.961    156 636 bytes   305 748 bytes   00:00:56.681
********************PLAYLIST: 00352.MPLS********************
Total   Video
Title                                                           Codec   Length  Movie Size      Disc Size       Bitrate Bitrate Main Audio Track                          Secondary Audio Track
-----                                                           ------  ------- --------------  --------------  ------- ------- ------------------                        ---------------------
00352.MPLS                                                      AVC     0:04:17 1 020 481 536   36 991 828 986  31.67   29.99   DD AC3 2.0 224Kbps
DISC INFO:
Disc Title:     EDWARD_SCISSORHANDS_REMASTERED
Disc Size:      36 991 828 986 bytes
Protection:     AACS
BD-Java:        Yes
BDInfo:         0.5.8
PLAYLIST REPORT:
Name:                   00352.MPLS
Length:                 0:04:17.799 (h:m:s.ms)
Size:                   1 020 481 536 bytes
Total Bitrate:          31.67 Mbps
VIDEO:
Codec                   Bitrate             Description
-----                   -------             -----------
MPEG-4 AVC Video        29989 kbps          1080p / 23.976 fps / 16:9 / High Profile 4.1
AUDIO:
Codec                           Language        Bitrate         Description
-----                           --------        -------         -----------
Dolby Digital Audio             English         224 kbps        2.0 / 48 kHz / 224 kbps / DN -4dB
FILES:
Name            Time In         Length          Size            Total Bitrate
----            -------         ------          ----            -------------
02141.M2TS      0:00:00.000     0:02:03.873     490 334 208     31 667
02424.M2TS      0:02:03.873     0:02:13.925     530 147 328     31 668
CHAPTERS:
Number          Time In         Length          Avg Video Rate  Max 1-Sec Rate  Max 1-Sec Time  Max 5-Sec Rate  Max 5-Sec Time  Max 10Sec Rate  Max 10Sec Time  Avg Frame Size  Max Frame Size  Max Frame Time
------          -------         ------          --------------  --------------  --------------  --------------  --------------  --------------  --------------  --------------  --------------  --------------
1               0:00:00.000     0:02:03.873     29 989 kbps     40 350 kbps     00:01:08.610    38 368 kbps     00:01:21.831    36 579 kbps     00:01:16.409    156 296 bytes   623 368 bytes   00:00:02.335
2               0:02:03.873     0:02:13.925     29 990 kbps     43 570 kbps     00:02:08.962    39 937 kbps     00:03:16.905    39 811 kbps     00:03:13.860    156 402 bytes   546 210 bytes   00:02:09.921
********************PLAYLIST: 00354.MPLS********************
Total   Video
Title                                                           Codec   Length  Movie Size      Disc Size       Bitrate Bitrate Main Audio Track                          Secondary Audio Track
-----                                                           ------  ------- --------------  --------------  ------- ------- ------------------                        ---------------------
00354.MPLS                                                      AVC     0:02:13 530 147 328     36 991 828 986  31.67   29.99   DD AC3 2.0 224Kbps
DISC INFO:
Disc Title:     EDWARD_SCISSORHANDS_REMASTERED
Disc Size:      36 991 828 986 bytes
Protection:     AACS
BD-Java:        Yes
BDInfo:         0.5.8
PLAYLIST REPORT:
Name:                   00354.MPLS
Length:                 0:02:13.925 (h:m:s.ms)
Size:                   530 147 328 bytes
Total Bitrate:          31.67 Mbps
VIDEO:
Codec                   Bitrate             Description
-----                   -------             -----------
MPEG-4 AVC Video        29990 kbps          1080p / 23.976 fps / 16:9 / High Profile 4.1
AUDIO:
Codec                           Language        Bitrate         Description
-----                           --------        -------         -----------
Dolby Digital Audio             English         224 kbps        2.0 / 48 kHz / 224 kbps / DN -4dB
FILES:
Name            Time In         Length          Size            Total Bitrate
----            -------         ------          ----            -------------
02424.M2TS      0:00:00.000     0:02:13.925     530 147 328     31 668
CHAPTERS:
Number          Time In         Length          Avg Video Rate  Max 1-Sec Rate  Max 1-Sec Time  Max 5-Sec Rate  Max 5-Sec Time  Max 10Sec Rate  Max 10Sec Time  Avg Frame Size  Max Frame Size  Max Frame Time
------          -------         ------          --------------  --------------  --------------  --------------  --------------  --------------  --------------  --------------  --------------  --------------
1               0:00:00.000     0:02:13.925     29 990 kbps     43 570 kbps     00:00:05.088    39 937 kbps     00:01:13.031    39 811 kbps     00:01:09.986    156 353 bytes   546 210 bytes   00:00:06.047
********************PLAYLIST: 00353.MPLS********************
Total   Video
Title                                                           Codec   Length  Movie Size      Disc Size       Bitrate Bitrate Main Audio Track                          Secondary Audio Track
-----                                                           ------  ------- --------------  --------------  ------- ------- ------------------                        ---------------------
00353.MPLS                                                      AVC     0:02:03 490 334 208     36 991 828 986  31.67   29.99   DD AC3 2.0 224Kbps
DISC INFO:
Disc Title:     EDWARD_SCISSORHANDS_REMASTERED
Disc Size:      36 991 828 986 bytes
Protection:     AACS
BD-Java:        Yes
BDInfo:         0.5.8
PLAYLIST REPORT:
Name:                   00353.MPLS
Length:                 0:02:03.873 (h:m:s.ms)
Size:                   490 334 208 bytes
Total Bitrate:          31.67 Mbps
VIDEO:
Codec                   Bitrate             Description
-----                   -------             -----------
MPEG-4 AVC Video        29989 kbps          1080p / 23.976 fps / 16:9 / High Profile 4.1
AUDIO:
Codec                           Language        Bitrate         Description
-----                           --------        -------         -----------
Dolby Digital Audio             English         224 kbps        2.0 / 48 kHz / 224 kbps / DN -4dB
FILES:
Name            Time In         Length          Size            Total Bitrate
----            -------         ------          ----            -------------
02141.M2TS      0:00:00.000     0:02:03.873     490 334 208     31 667
CHAPTERS:
Number          Time In         Length          Avg Video Rate  Max 1-Sec Rate  Max 1-Sec Time  Max 5-Sec Rate  Max 5-Sec Time  Max 10Sec Rate  Max 10Sec Time  Avg Frame Size  Max Frame Size  Max Frame Time
------          -------         ------          --------------  --------------  --------------  --------------  --------------  --------------  --------------  --------------  --------------  --------------
1               0:00:00.000     0:02:03.873     29 989 kbps     40 350 kbps     00:01:08.610    38 368 kbps     00:01:21.831    36 579 kbps     00:01:16.409    156 348 bytes   623 368 bytes   00:00:02.335

Скриншот с названием фильма

Скриншоты
Скачать

Скачать торрент!

Как скачивать? · Что такое торрент? · Рейтинг и ограничения

Сайт не распространяет и не хранит электронные версии произведений, а лишь предоставляет доступ к создаваемому пользователями каталогу ссылок на торрент-файлы, которые содержат только списки хеш-сумм

[Профиль] [ЛС]
Показать сообщения:    
Ответить на тему

Текущее время: Сегодня 22:42

Часовой пояс: GMT + 4



Вы не можете начинать темы
Вы не можете отвечать на сообщения
Вы не можете редактировать свои сообщения
Вы не можете удалять свои сообщения
Вы не можете голосовать в опросах
Вы не можете прикреплять файлы к сообщениям
Вы не можете скачивать файлы