Сюрприз / De Surprise (Майк ван Дим / Mike van Diem) [2015, Нидерланды, Бельгия, Германия, Ирландия, комедия, мелодрама, WEB-DL 720p] Dub (iTunes)

Ответить на тему
 
Автор Сообщение

user ®

Стаж: 7 лет 7 месяцев

Сообщений: 20008

Пост Пост: #1 от 12-Окт-2015 18:06

[Цитировать]

Сюрприз / De Surprise«Пока смерть не разлучит нас»___________________________________________________________________________________________
Страна: Нидерланды, Бельгия, Германия, Ирландия
Студия: N279 Entertainment, FATT Productions, Prime Time
Жанр: комедия, мелодрама
Год выпуска: 2015
Продолжительность: 01:41:21
Перевод: Профессиональный (дублированный) |iTunes|
Оригинальная аудиодорожка: нет
Cубтитры: нет
Режиссер: Майк ван Дим / Mike van Diem
В ролях: Йерун ван Конингсбругге, Джорджина Вербаан, Ян Деклер, Генри Гудман, Анкур Баль, Навид Чоудри, Оливер Гатс, Ронни Джатти, Элизабет Андерсен, Тамар Баруч
Описание: Эксцентричный мультимиллионер подписывает соглашение о «прекращении» своей жизни. Выбирая гроб для похорон, он знакомится с подписавшей аналогичный договор молодой женщиной. Проблемы возникают после того, как они влюбляются друг в друга и пытаются расторгнуть заключенные контракты…
___________________________________________________________________________________________

Тип релиза: WEB-DL 720p
Контейнер: MKV
Видео: 1280x536 at 24.000 fps, MPEG-4 AVC, ~3900 kbps avg
Аудио: Russian: 48 kHz, AC3, 3/2 (L,C,R,l,r) + LFE ch, ~384.00 kbps avg |Дубляж, iTunes|
Субтитры: None
Скриншоты MediaInfo
General
Unique ID : 233341430454548209084468290682555909795 (0xAF8BECC0DCF0E4FE921E476C4ACEC6A3)
Complete name : D:\De.Surprise.2015.WEB-DL.720p.Rus.mkv
Format : Matroska
Format version : Version 4 / Version 2
File size : 3.08 GiB
Duration : 1h 41mn
Overall bit rate : 4 348 Kbps
Movie name : Сюрприз / De Surprise (2015)
Encoded date : UTC 2015-10-09 05:33:00
Writing application : mkvmerge v8.3.0 ('Over the Horizon') 64bit
Writing library : libebml v1.3.1 + libmatroska v1.4.2
Attachements : cover.jpg
DURATION : 01:41:21.440000000
NUMBER_OF_FRAMES : 190045
NUMBER_OF_BYTES : 291909120
_STATISTICS_WRITING_APP : mkvmerge v8.3.0 ('Over the Horizon') 64bit
_STATISTICS_WRITING_DATE_UT : 2015-10-09 05:33:00
_STATISTICS_TAGS : BPS DURATION NUMBER_OF_FRAMES NUMBER_OF_BYTES
Video
ID : 1
Format : AVC
Format/Info : Advanced Video Codec
Format profile : Main@L3.1
Format settings, CABAC : No
Format settings, ReFrames : 2 frames
Codec ID : V_MPEG4/ISO/AVC
Duration : 1h 41mn
Bit rate : 3 877 Kbps
Width : 1 280 pixels
Height : 536 pixels
Display aspect ratio : 2.40:1
Frame rate mode : Constant
Frame rate : 24.000 fps
Color space : YUV
Chroma subsampling : 4:2:0
Bit depth : 8 bits
Scan type : Progressive
Bits/(Pixel*Frame) : 0.235
Stream size : 2.74 GiB (89%)
Title : Сюрприз / De Surprise (2015) WEB-DL 720p
Language : English
Default : Yes
Forced : No
Color range : Limited
Color primaries : BT.709
Transfer characteristics : BT.709
Matrix coefficients : BT.709
Audio
ID : 2
Format : AC-3
Format/Info : Audio Coding 3
Mode extension : CM (complete main)
Format settings, Endianness : Big
Codec ID : A_AC3
Duration : 1h 41mn
Bit rate mode : Constant
Bit rate : 384 Kbps
Channel(s) : 6 channels
Channel positions : Front: L C R, Side: L R, LFE
Sampling rate : 48.0 KHz
Compression mode : Lossy
Stream size : 278 MiB (9%)
Title : Dub, iTunes
Language : Russian
Default : Yes
Forced : No
Menu
00:00:00.000 : Chapter 1
00:08:27.000 : Chapter 2
00:13:29.000 : Chapter 3
00:23:17.000 : Chapter 4
00:29:17.000 : Chapter 5
00:39:21.000 : Chapter 6
00:46:45.000 : Chapter 7
00:56:44.000 : Chapter 8
01:06:25.000 : Chapter 9
01:15:33.000 : Chapter 10
01:23:52.000 : Chapter 11
01:29:48.000 : Chapter 12
Скачать

Скачать торрент!

Как скачивать? · Что такое торрент? · Рейтинг и ограничения

Сайт не распространяет и не хранит электронные версии произведений, а лишь предоставляет доступ к создаваемому пользователями каталогу ссылок на торрент-файлы, которые содержат только списки хеш-сумм

[Профиль] [ЛС]
Показать сообщения:    
Ответить на тему

Текущее время: Сегодня 09:02

Часовой пояс: GMT + 4



Вы не можете начинать темы
Вы не можете отвечать на сообщения
Вы не можете редактировать свои сообщения
Вы не можете удалять свои сообщения
Вы не можете голосовать в опросах
Вы не можете прикреплять файлы к сообщениям
Вы не можете скачивать файлы