Пропавшие миллионы / Этот грязный негодяй Шейм / A Low Down Dirty Shame (Кинен Айвори Уэйанс / Keenen Ivory Wayans) [1994, США, комедия, боевик, криминал, WEB-DL 1080p] 2x AVO + Sub Eng + Original Eng

Ответить на тему
 
Автор Сообщение

user ®

Стаж: 7 лет 7 месяцев

Сообщений: 20008

Пост Пост: #1 от 12-Окт-2015 18:06

[Цитировать]

Пропавшие миллионы / Этот грязный негодяй Шейм / A Low Down Dirty Shame
Страна: США
Студия: Caravan Pictures, Hollywood Pictures
Жанр: комедия, боевик, криминал
Год выпуска: 1994
Продолжительность: 01:40:31
Перевод 1: Авторский (одноголосый закадровый) Леонид Володарский
Перевод 2: Авторский (одноголосый закадровый) Александр Кашкин
Cубтитры: английские
Оригинальная аудиодорожка: английский
Режиссер: Кинен Айвори Уэйанс / Keenen Ivory Wayans
В ролях: Кинен Айвори Уайанс, Чарльз С. Даттон, Джада Пинкетт Смит, Салли Ричардсон-Уитфилд, Эндрю Дивофф, Коруин Хоукинс, Гэри Сервантес, Грегори Сьерра, Ким Уайанс, Эндрю Шайфер
Описание: Бывший полицейский Шэйм занимается опасными частными расследованиями, от ведения которых отказываются все прочие. Он — всегда на линии огня и на дистанции удара, однако ему удается выходить живым из любых переделок. Этими его качествами решил воспользоваться его старый друг, предложивший Шэйму найти пропавшие миллионы. И все прошлые переделки оказываются детской забавой в сравнении с этим новым делом…
II Сэмпл II IMDB II
Тип релиза: WEB-DL 1080p
Контейнер: MKV
Видео: AVC / 1920x1034 / 1.86:1 / 23.976fps / Bit rate 5048Kbps
Аудио 1: AC3 / 48.0 KHz / 2ch. / 192kbps / rus / avo / Леонид Володарский
Аудио 2: AC3 / 48.0 KHz / 2ch. / 192kbps / rus / avo / Александр Кашкин
Аудио 3: AAC-LC / 48.0 KHz / 2ch. / 158kbps / eng
MediaInfo
Общее
Уникальный идентификатор : 225018048176174183305667043537924878162 (0xA948E652CE1E73E79409F81FC83F6F52)
Полное имя : G:\!!!_torrent\A.Low.Down.Dirty.Shame.1994.WEB-DL.1080.by_vedigo.mkv
Формат : Matroska
Версия формата : Version 4 / Version 2
Размер файла : 4,00 Гбайт
Продолжительность : 1 ч. 40 м.
Общий поток : 5693 Кбит/сек
Название фильма : A.Low.Down.Dirty.Shame.1994.WEB-DL.1080.by_vedigo.mkv
Дата кодирования : UTC 2015-10-09 07:22:15
Программа кодирования : mkvmerge v8.4.0 ('A better way to fly') 64bit
Библиотека кодирования : libebml v1.3.1 + libmatroska v1.4.2
DURATION : 01:39:30.804000000
NUMBER_OF_FRAMES : 1056
NUMBER_OF_BYTES : 41897
_STATISTICS_WRITING_APP : mkvmerge v8.4.0 ('A better way to fly') 64bit
_STATISTICS_WRITING_DATE_UTC : 2015-10-09 07:22:15
_STATISTICS_TAGS : BPS DURATION NUMBER_OF_FRAMES NUMBER_OF_BYTES
Видео
Идентификатор : 1
Формат : AVC
Формат/Информация : Advanced Video Codec
Профиль формата : High@L4
Параметр CABAC формата : Да
Параметр ReFrames формата : 4 кадра
Идентификатор кодека : V_MPEG4/ISO/AVC
Продолжительность : 1 ч. 40 м.
Ширина : 1920 пикселей
Высота : 1034 пикселя
Соотношение сторон : 1,85:1
Режим частоты кадров : Постоянный
Частота кадров : 23,976 кадра/сек
Цветовое пространство : YUV
Субдискретизация насыщенности : 4:2:0
Битовая глубина : 8 бит
Тип развёртки : Прогрессивная
Заголовок : A.Low.Down.Dirty.Shame.1994.WEB-DL.1080p_by_vedigo
Default : Да
Forced : Нет
Цветовой диапазон : Limited
Основные цвета : BT.709
Характеристики трансфера : BT.709
Коэффициенты матрицы : BT.709
Аудио #1
Идентификатор : 2
Формат : AC-3
Формат/Информация : Audio Coding 3
Расширение режима : CM (complete main)
Параметр Endianness формата : Big
Идентификатор кодека : A_AC3
Продолжительность : 1 ч. 40 м.
Вид битрейта : Постоянный
Битрейт : 192 Кбит/сек
Каналы : 2 канала
Расположение каналов : Front: L R
Частота : 48,0 КГц
Метод сжатия : С потерями
Размер потока : 138 Мбайт (3%)
Заголовок : AVO @ Леонид Володарский
Язык : Russian
Default : Да
Forced : Нет
Аудио #2
Идентификатор : 3
Формат : AC-3
Формат/Информация : Audio Coding 3
Расширение режима : CM (complete main)
Параметр Endianness формата : Big
Идентификатор кодека : A_AC3
Продолжительность : 1 ч. 40 м.
Вид битрейта : Постоянный
Битрейт : 192 Кбит/сек
Каналы : 2 канала
Расположение каналов : Front: L R
Частота : 48,0 КГц
Метод сжатия : С потерями
Размер потока : 138 Мбайт (3%)
Заголовок : AVO @ Александр Кашкин
Язык : Russian
Default : Нет
Forced : Нет
Аудио #3
Идентификатор : 4
Формат : AAC
Формат/Информация : Advanced Audio Codec
Профиль формата : LC
Идентификатор кодека : A_AAC
Продолжительность : 1 ч. 40 м.
Каналы : 2 канала
Расположение каналов : Front: L R
Частота : 48,0 КГц
Метод сжатия : С потерями
Заголовок : original
Язык : English
Default : Нет
Forced : Нет
Текст
Идентификатор : 5
Формат : UTF-8
Идентификатор кодека : S_TEXT/UTF8
Идентификатор кодека/Информация : UTF-8 Plain Text
Заголовок : Subtitle eng
Язык : English
Default : Нет
Forced : Нет
Меню
00:00:00.000 : en:Opening Credits
00:09:32.000 : en:Peaches And Shame
00:13:28.000 : en:Shamus On The Case
00:24:02.000 : en:Message Sent & Received
00:36:56.000 : en:Tailing The Lady
00:43:55.000 : en:"It's A Setup!"
00:51:08.000 : en:It's All About Business
01:00:16.000 : en:Confronting Mendoza
01:08:44.000 : en:A Little Insurance
01:19:08.000 : en:A Deal With The Devil
01:30:37.000 : en:Showdown
01:37:07.000 : en:End Credits
Скриншоты
Скачать

Скачать торрент!

Как скачивать? · Что такое торрент? · Рейтинг и ограничения

Сайт не распространяет и не хранит электронные версии произведений, а лишь предоставляет доступ к создаваемому пользователями каталогу ссылок на торрент-файлы, которые содержат только списки хеш-сумм

[Профиль] [ЛС]
Показать сообщения:    
Ответить на тему

Текущее время: Сегодня 01:51

Часовой пояс: GMT + 4



Вы не можете начинать темы
Вы не можете отвечать на сообщения
Вы не можете редактировать свои сообщения
Вы не можете удалять свои сообщения
Вы не можете голосовать в опросах
Вы не можете прикреплять файлы к сообщениям
Вы не можете скачивать файлы