Мышиная охота / Mousehunt (Гор Вербински / Gore Verbinski) [1997, США, комедия, WEB-DL 720p] Dub (Ист-Вест) + MVO (Премьер Мультимедиа) + MVO (Премьер Видео Фильм) + AVO (Андрей Гаврилов) + AVO (Александр Кашкин) + Sub Rus, Eng + Original Eng

Ответить на тему
 
Автор Сообщение

user ®

Стаж: 7 лет 7 месяцев

Сообщений: 20008

Пост Пост: #1 от 12-Окт-2015 18:06

[Цитировать]

Мышиная охота / Mousehunt
Страна: США
Жанр: комедия
Год выпуска: 1997
Продолжительность: 01:37:34
Перевод 1: Профессиональный (дублированный) Ист-Вест
Перевод 2: Профессиональный (многоголосый закадровый) Премьер Мультимедиа
Перевод 3: Профессиональный (многоголосый закадровый) Премьер Видео Фильм
Перевод 4: Авторский (одноголосый закадровый) Андрей Гаврилов
Перевод 5: Авторский (одноголосый закадровый) Александр Кашкин
Cубтитры: русские
Оригинальная аудиодорожка: английский
Режиссер: Гор Вербински / Gore Verbinski
В ролях: Натан Лэйн, Ли Эванс, Мори Чайкин, Кристофер Уокен, Вики Льюис, Дебра Кристофферсон, Камилла Сёэберг, Йен Эберкромби, Аннабелль Гурвич...
Описание: Братья Ларс и Эрни Шмунц не придают особого значения унаследованному ими старому полуразрушенному особняку до тех пор, пока они не узнают, что их ветхая недвижимость стоит миллионы. Но есть одна проблема. Чтобы продать дом, братья должны избавиться от его единственного и упрямого обитателя — маленькой, но очень цепкой мыши. То, что поначалу кажется детской игрой, становится настоящей грандиозной битвой.
Доп. информация: За дубляж спасибо xfiles. За оцифровку VHS от Премьер Видео Фильм спасибо серый75. За перевод Гаврилова спасибо magcheater. Синхронизация звука - Dreven.
Сэмпл: http://sendfile.su/1163039
Тип релиза: WEB-DL 720p
Контейнер: MKV
Видео: 1280x720 (16:9), 23.976 fps, AVC, ~3970 Kbps, 0.180 bits/pixel
Аудио 1: Russian, 48.0 KHz, AC3, 2 ch, 224 Kbps - Ист-Вест
Аудио 2: Russian, 48.0 KHz, AC3, 6 ch, 384 Kbps - Премьер Мультимедиа
Аудио 3: Russian, 48.0 KHz, AC3, 2 ch, 192 Kbps - Премьер Видео Фильм
Аудио 4: Russian, 48.0 KHz, AC3, 6 ch, 384 Kbps - Андрей Гаврилов
Аудио 5: Russian, 48.0 KHz, AC3, 2 ch, 192 Kbps - Александр Кашкин
Аудио 6: English, 48.0 KHz, AC3, 6 ch, 384 Kbps
Сравнение
[url=http://***/forum/viewtopic.php?t=200978]http://***/forum/viewtopic.php?t=200978[/url]
http://screenshotcomparison.com/comparison/146215
MediaInfo
General
Unique ID : 230902692300617463952475384431718225961 (0xADB63DADDC180556BB0E977D4090D829)
Complete name : D:\Mousehunt. WEB-DL 720p.mkv
Format : Matroska
Format version : Version 4 / Version 2
File size : 3.98 GiB
Duration : 1h 37mn
Overall bit rate : 5 846 Kbps
Movie name :
Encoded date : UTC 2015-10-08 15:51:23
Writing application : mkvmerge v8.2.0 ('World of Adventure') 64bit
Writing library : libebml v1.3.1 + libmatroska v1.4.2
DURATION : 01:37:33.856000000
NUMBER_OF_FRAMES : 182933
NUMBER_OF_BYTES : 140492544
_STATISTICS_WRITING_APP : mkvmerge v8.2.0 ('World of Adventure') 64bit
_STATISTICS_WRITING_DATE_UT : 2015-10-08 15:51:23
_STATISTICS_TAGS : BPS DURATION NUMBER_OF_FRAMES NUMBER_OF_BYTES
Video
ID : 1
Format : AVC
Format/Info : Advanced Video Codec
Format profile : High@L3.1
Format settings, CABAC : No
Format settings, ReFrames : 2 frames
Codec ID : V_MPEG4/ISO/AVC
Duration : 1h 37mn
Bit rate : 3 970 Kbps
Width : 1 280 pixels
Height : 720 pixels
Display aspect ratio : 16:9
Frame rate mode : Constant
Frame rate : 23.976 fps
Color space : YUV
Chroma subsampling : 4:2:0
Bit depth : 8 bits
Scan type : Progressive
Bits/(Pixel*Frame) : 0.180
Stream size : 2.71 GiB (68%)
Language : English
Default : Yes
Forced : No
Color range : Limited
Color primaries : BT.709
Transfer characteristics : BT.709
Matrix coefficients : BT.709
Audio #1
ID : 2
Format : AC-3
Format/Info : Audio Coding 3
Mode extension : CM (complete main)
Format settings, Endianness : Big
Codec ID : A_AC3
Duration : 1h 37mn
Bit rate mode : Constant
Bit rate : 224 Kbps
Channel(s) : 2 channels
Channel positions : Front: L R
Sampling rate : 48.0 KHz
Compression mode : Lossy
Stream size : 156 MiB (4%)
Title : Ист-Вест
Language : Russian
Default : Yes
Forced : No
Audio #2
ID : 3
Format : AC-3
Format/Info : Audio Coding 3
Mode extension : CM (complete main)
Format settings, Endianness : Big
Codec ID : A_AC3
Duration : 1h 37mn
Bit rate mode : Constant
Bit rate : 384 Kbps
Channel(s) : 6 channels
Channel positions : Front: L C R, Side: L R, LFE
Sampling rate : 48.0 KHz
Compression mode : Lossy
Stream size : 268 MiB (7%)
Title : Премьер Мультимедиа
Language : Russian
Default : No
Forced : No
Audio #3
ID : 4
Format : AC-3
Format/Info : Audio Coding 3
Mode extension : CM (complete main)
Format settings, Endianness : Big
Codec ID : A_AC3
Duration : 1h 37mn
Bit rate mode : Constant
Bit rate : 192 Kbps
Channel(s) : 2 channels
Channel positions : Front: L R
Sampling rate : 48.0 KHz
Compression mode : Lossy
Stream size : 134 MiB (3%)
Title : Премьер Видео Фильм
Language : Russian
Default : No
Forced : No
Audio #4
ID : 5
Format : AC-3
Format/Info : Audio Coding 3
Mode extension : CM (complete main)
Format settings, Endianness : Big
Codec ID : A_AC3
Duration : 1h 37mn
Bit rate mode : Constant
Bit rate : 384 Kbps
Channel(s) : 6 channels
Channel positions : Front: L C R, Side: L R, LFE
Sampling rate : 48.0 KHz
Compression mode : Lossy
Stream size : 268 MiB (7%)
Title : Андрей Гаврилов
Language : Russian
Default : No
Forced : No
Audio #5
ID : 6
Format : AC-3
Format/Info : Audio Coding 3
Mode extension : CM (complete main)
Format settings, Endianness : Big
Codec ID : A_AC3
Duration : 1h 37mn
Bit rate mode : Constant
Bit rate : 192 Kbps
Channel(s) : 2 channels
Channel positions : Front: L R
Sampling rate : 48.0 KHz
Compression mode : Lossy
Stream size : 134 MiB (3%)
Title : Александр Кашкин
Language : Russian
Default : No
Forced : No
Audio #6
ID : 7
Format : AC-3
Format/Info : Audio Coding 3
Mode extension : CM (complete main)
Format settings, Endianness : Big
Codec ID : A_AC3
Duration : 1h 37mn
Bit rate mode : Constant
Bit rate : 384 Kbps
Channel(s) : 6 channels
Channel positions : Front: L C R, Side: L R, LFE
Sampling rate : 48.0 KHz
Compression mode : Lossy
Stream size : 268 MiB (7%)
Language : English
Default : No
Forced : No
Text #1
ID : 8
Format : UTF-8
Codec ID : S_TEXT/UTF8
Codec ID/Info : UTF-8 Plain Text
Language : Russian
Default : No
Forced : No
Text #2
ID : 9
Format : UTF-8
Codec ID : S_TEXT/UTF8
Codec ID/Info : UTF-8 Plain Text
Language : English
Default : No
Forced : No
Text #3
ID : 10
Format : UTF-8
Codec ID : S_TEXT/UTF8
Codec ID/Info : UTF-8 Plain Text
Title : SDH
Language : English
Default : No
Forced : No
Menu
00:00:00.000 : en:The Funeral (Main Titles)
00:06:50.000 : en:A Date with the Mayor
00:09:35.000 : en:The String
00:16:29.000 : en:What a Dump
00:21:28.000 : en:The Missing Larue
00:25:27.000 : en:A Single Vermin
00:30:37.000 : en:Sweet Dreams
00:34:18.000 : en:Never Underestimate Your Opponent
00:40:14.000 : en:Catzilla
00:44:46.000 : en:Ernie Smells a Rat
00:48:12.000 : en:Caesar
00:51:53.000 : en:All Strung Out
00:57:22.000 : en:What a Drag
01:02:06.000 : en:What a Gas
01:06:45.000 : en:Shoot! Shoot!
01:09:03.000 : en:Sibling Rivalry
01:14:13.000 : en:The Auction
01:24:53.000 : en:Going... Going... Gone!
01:29:21.000 : en:String Cheese
01:32:48.000 : en:End Titles
Скриншоты
Скачать

Скачать торрент!

Как скачивать? · Что такое торрент? · Рейтинг и ограничения

Сайт не распространяет и не хранит электронные версии произведений, а лишь предоставляет доступ к создаваемому пользователями каталогу ссылок на торрент-файлы, которые содержат только списки хеш-сумм

[Профиль] [ЛС]
Показать сообщения:    
Ответить на тему

Текущее время: Сегодня 21:40

Часовой пояс: GMT + 4



Вы не можете начинать темы
Вы не можете отвечать на сообщения
Вы не можете редактировать свои сообщения
Вы не можете удалять свои сообщения
Вы не можете голосовать в опросах
Вы не можете прикреплять файлы к сообщениям
Вы не можете скачивать файлы