Самое главное (Александр Ефремов) [2015, Россия, мелодрама, HDTVRip]

Ответить на тему
 
Автор Сообщение

user ®

Стаж: 7 лет 7 месяцев

Сообщений: 20008

Пост Пост: #1 от 12-Окт-2015 18:06

[Цитировать]

Самое главноеСтрана: Россия, ООО "Тесей Продакшн", "МегаФильм"
Год выпуска: 2015
Жанр: мелодрама
Продолжительность: 01:33:00-Режиссер: Александр Ефремов-В ролях: Олеся Грибок, Борис Хвошнянский, Алёна Ивченко, Павел Яскевич, Иван Стрельцов, Юлианна Михневич, Тамара Миронова, Полина Стефанович, Алексей Юцкевич
--Главная героиня Даша живет в небольшом городе вместе с бабушкой. Родных, кроме старенькой бабушки, у Даши нет — мама умерла, а отца девушка никогда не знала и считала погибшим. Но однажды бабушка решает открыть Дарье тайну ее рождения — ее отец жив и живет в Москве, не подозревая, что у него есть взрослая дочь. Даша решает поехать в столицу и найти своего папу. Им оказывается импозантный мужчина Владимир Бестужев — большой любитель женщин.
А самое главное — он, кажется, вовсе не рад тому, что Даша — его дочь.
-
-
Сэмпл: http://sendfile.su/1163748
Качество видео: HDTVRip
Формат видео: AVI
Видео: XviD (1.2.2) 950kbps 688x368 25.000fps
Аудио: MP3 128kbps 2ch 16bit 48000khz

MediaInfo
MediaInfoLib - v0.7.62
General
Complete name : E:\Контарик\Downloads\Мои раздачи\Самое главное. 2015г. HDTVRip. - kontarik81.avi
Format : AVI
Format/Info : Audio Video Interleave
File size : 727 MiB
Duration : 1h 33mn
Overall bit rate : 1 087 Kbps
Writing application : VirtualDubMod 1.5.10.3 | www.virtualdub-fr.org || (build 2550/release)
Writing library : VirtualDubMod build 2550/release
Video
ID : 0
Format : MPEG-4 Visual
Format profile : Advanced Simple@L5
Format settings, BVOP : 1
Format settings, QPel : No
Format settings, GMC : No warppoints
Format settings, Matrix : Default (H.263)
Codec ID : XVID
Codec ID/Hint : XviD
Duration : 1h 33mn
Bit rate : 950 Kbps
Width : 688 pixels
Height : 368 pixels
Display aspect ratio : 1.85:1
Frame rate : 25.000 fps
Color space : YUV
Chroma subsampling : 4:2:0
Bit depth : 8 bits
Scan type : Progressive
Compression mode : Lossy
Bits/(Pixel*Frame) : 0.150
Stream size : 635 MiB (87%)
Writing library : XviD 1.2.1 (UTC 2008-12-04)
Audio
ID : 1
Format : MPEG Audio
Format version : Version 1
Format profile : Layer 3
Codec ID : 55
Codec ID/Hint : MP3
Duration : 1h 33mn
Bit rate mode : Constant
Bit rate : 128 Kbps
Channel(s) : 2 channels
Sampling rate : 48.0 KHz
Compression mode : Lossy
Stream size : 85.6 MiB (12%)
Alignment : Aligned on interleaves
Interleave, duration : 40 ms (1.00 video frame)
Interleave, preload duration : 504 ms
Writing library : LAME3.99r
Encoding settings : -m s -V 4 -q 2 -lowpass 17 -b 128
Скриншот c названием фильма Скриншоты
Скачать

Скачать торрент!

Как скачивать? · Что такое торрент? · Рейтинг и ограничения

Сайт не распространяет и не хранит электронные версии произведений, а лишь предоставляет доступ к создаваемому пользователями каталогу ссылок на торрент-файлы, которые содержат только списки хеш-сумм

[Профиль] [ЛС]
Показать сообщения:    
Ответить на тему

Текущее время: Сегодня 04:07

Часовой пояс: GMT + 4



Вы не можете начинать темы
Вы не можете отвечать на сообщения
Вы не можете редактировать свои сообщения
Вы не можете удалять свои сообщения
Вы не можете голосовать в опросах
Вы не можете прикреплять файлы к сообщениям
Вы не можете скачивать файлы