Хранитель луны / Mune, le gardien de la lune (Александр Эбоян / Alexandre Heboyan, Бенуа Филиппон / Benoît Philippon) [2014, Мультипликация, WEBRip 1080p] DUB

Ответить на тему
 
Автор Сообщение

user ®

Стаж: 12 лет

Сообщений: 15145

Пост Пост: #1 от 12-Окт-2015 15:00

[Цитировать]

Хранитель луны / Mune, le gardien de la lune
Страна: Франция
Жанр: Мультипликация
Продолжительность: 01:21:25
Год выпуска: 2014
Перевод: Профессиональный (дублированный) [Line]
Русские субтитры: нет-Режиссёр: Александр Эбоян / Alexandre Heboyan, Бенуа Филиппон / Benoît Philippon
Роли озвучивали: Александр Ревва, Наталия Медведева, Василий Буткевич, Алексей Багдасаров, Илья Барабанов, Алексей Розин, Сергей Чихачев, Александр Вартанов, Артур Бесчастный, Григорий Калинин, Александр Новиков-Описание: На диковинной планете, где смена дня и ночи осуществляется вручную, юного фавна Мьюна неожиданно избирают хранителем Луны. Но к своему ужасу, он почти сразу теряет ее! Воспользовавшись этим, царь подземного мира Некрос крадет и гасит Солнце. Теперь, чтобы спасти планету, Мьюн вместе с отважной девочкой из воска Глим и заносчивым Сохоном, хранителем Солнца, должны отправиться в удивительное и опасное путешествие.-Качество: WEBRip 1080p
Формат: MKV
Видео: AVC, 1920x800 (2.40:1), 30.000 fps, 3 500 Kbps (0.076 bit/pixel)
Аудио: AC-3, 48.0 KHz, 2 ch, 448 Kbps, CBR (Russian) [Line]
Субтитры: отсутствуют
Семпл: Забираем тут
Подробные технические данные
Unique ID : 194628676963750035877786460978612671471 (0x926C1EA4AA5C19E6BBE39C1D235E13EF)Complete name : Mune le gardien de la lune 2014 WEBRip 1080p.mkvFormat : MatroskaFormat version : Version 4 / Version 2File size : 2.24 GiBDuration : 1h 21mnOverall bit rate : 3 949 KbpsEncoded date : UTC 2015-10-11 15:00:18Writing application : mkvmerge v8.3.0 ('Over the Horizon') 64bitWriting library : libebml v1.3.1 + libmatroska v1.4.2DURATION : 01:21:13.824000000NUMBER_OF_FRAMES : 152307NUMBER_OF_BYTES : 272934144_STATISTICS_WRITING_APP : mkvmerge v8.3.0 ('Over the Horizon') 64bit_STATISTICS_WRITING_DATE_UT : 2015-10-11 15:00:18_STATISTICS_TAGS : BPS DURATION NUMBER_OF_FRAMES NUMBER_OF_BYTES
VideoID : 1Format : AVCFormat/Info : Advanced Video CodecFormat profile : High@L4.1Format settings, CABAC : YesFormat settings, ReFrames : 4 framesCodec ID : V_MPEG4/ISO/AVCDuration : 1h 21mnBit rate : 3 500 KbpsWidth : 1 920 pixelsHeight : 800 pixelsDisplay aspect ratio : 2.40:1Frame rate mode : ConstantFrame rate : 30.000 fpsColor space : YUVChroma subsampling : 4:2:0Bit depth : 8 bitsScan type : ProgressiveBits/(Pixel*Frame) : 0.076Stream size : 1.94 GiB (87%)Writing library : x264 core 146 r2538 121396cEncoding settings : cabac=1 / ref=3 / deblock=1:-3:-3 / analyse=0x3:0x113 / me=umh / subme=7 / psy=1 / psy_rd=1.00:0.00 / mixed_ref=1 / me_range=22 / chroma_me=1 / trellis=2 / 8x8dct=1 / cqm=0 / deadzone=21,11 / fast_pskip=0 / chroma_qp_offset=-2 / threads=12 / lookahead_threads=2 / sliced_threads=0 / nr=0 / decimate=1 / interlaced=0 / bluray_compat=0 / constrained_intra=0 / bframes=3 / b_pyramid=2 / b_adapt=2 / b_bias=0 / direct=3 / weightb=1 / open_gop=0 / weightp=2 / keyint=250 / keyint_min=25 / scenecut=40 / intra_refresh=0 / rc_lookahead=50 / rc=2pass / mbtree=1 / bitrate=3500 / ratetol=1.0 / qcomp=0.60 / qpmin=0 / qpmax=69 / qpstep=4 / cplxblur=20.0 / qblur=0.5 / vbv_maxrate=14000 / vbv_bufsize=14000 / nal_hrd=none / filler=0 / ip_ratio=1.40 / aq=1:1.00Language : EnglishDefault : YesForced : NoDURATION : 01:21:13.761000000NUMBER_OF_FRAMES : 146213NUMBER_OF_BYTES : 2131733647_STATISTICS_WRITING_APP : mkvmerge v8.3.0 ('Over the Horizon') 64bit_STATISTICS_WRITING_DATE_UT : 2015-10-11 15:00:18_STATISTICS_TAGS : BPS DURATION NUMBER_OF_FRAMES NUMBER_OF_BYTES
AudioID : 2Format : AC-3Format/Info : Audio Coding 3Mode extension : CM (complete main)Format settings, Endianness : BigCodec ID : A_AC3Duration : 1h 21mnBit rate mode : ConstantBit rate : 448 KbpsChannel(s) : 2 channelsChannel positions : Front: L RSampling rate : 48.0 KHzCompression mode : LossyStream size : 260 MiB (11%)Language : RussianDefault : YesForced : No
Скриншоты
Скачать

Скачать торрент! Хранитель луны / Mune, le gardien de la lune (Александр Эбоян / Alexandre Heboyan, Бенуа Филиппон / Benoît Philippon) [2014, Мультипликация, WEBRip 1080p] DUB

Как скачивать? · Что такое торрент? · Рейтинг и ограничения

Сайт не распространяет и не хранит электронные версии произведений, а лишь предоставляет доступ к создаваемому пользователями каталогу ссылок на торрент-файлы, которые содержат только списки хеш-сумм

[Профиль] [ЛС]
Показать сообщения:    
Ответить на тему

Текущее время: Сегодня 22:09

Часовой пояс: GMT + 4



Вы не можете начинать темы
Вы не можете отвечать на сообщения
Вы не можете редактировать свои сообщения
Вы не можете удалять свои сообщения
Вы не можете голосовать в опросах
Вы не можете прикреплять файлы к сообщениям
Вы не можете скачивать файлы