Наследники / Descendants (Кенни Ортега / Kenny Ortega) [2015, США, фэнтези, комедия, приключения, DVB] Dub (Невафильм)

Ответить на тему
 
Автор Сообщение

user ®

Стаж: 7 лет 7 месяцев

Сообщений: 20008

Пост Пост: #1 от 12-Окт-2015 02:36

[Цитировать]

Наследники / Descendants- -Страна: США
Жанр: фэнтези, комедия, приключения
Год выпуска: 2015
Продолжительность: 01:51:53-Перевод: Профессиональный (дублированный) [Невафильм]
Cубтитры: нет
Оригинальная аудиодорожка: нет-Режиссер: Кенни Ортега / Kenny Ortega-В ролях: Дав Камерон, Кэмерон Бойс, Бу Бу Стюарт, София Карсон, Митчелл Хоуп-Описание: После прихода к власти молодой монарх выдает новый указ – «амнистию», по которой всем наследникам известных злодеев, которые находятся в заточении на острове, дается второй шанс. Всех отправляют в школу, в которой учатся дети Белоснежки, Рапунцель и других позитивных героев. Тут второму поколению предстоит определить для себя – продолжать дело родителей, или же начать все с чистого листа.-Семпл: Скачать-Качество видео: DVB
Формат видео: TS-Видео: 720x576 (16:9) @ 1024x576, 25.000 fps, MPEG-2 Video, ~3100 Kbps, 0.299 bits/pixel
Аудио: 48.0 KHz, MPEG-1 Audio layer 2, 2 ch, 192 Kbps

MediaInfo
Complete name : E:\Descendants.2015.DVB.Rus.ts
Format : MPEG-TS
File size : 2.60 GiB
Duration : 1h 47mn
Overall bit rate mode : Variable
Overall bit rate : 3 466 Kbps
Maximum Overall bit rate : 35.5 Mbps
Video
ID : 4113 (0x1011)
Menu ID : 1 (0x1)
Format : MPEG Video
Format version : Version 2
Format profile : Main@Main
Format settings, BVOP : Yes
Format settings, Matrix : Custom
Format settings, GOP : Variable
Format settings, picture st : Frame
Codec ID : 2
Duration : 1h 47mn
Bit rate mode : Variable
Bit rate : 3 100 Kbps
Maximum bit rate : 3 350 Kbps
Width : 720 pixels
Height : 576 pixels
Display aspect ratio : 16:9
Active Format Description : Letterbox 16:9 image (top)
Frame rate : 25.000 fps
Standard : PAL
Color space : YUV
Chroma subsampling : 4:2:0
Bit depth : 8 bits
Scan type : Interlaced
Scan order : Top Field First
Compression mode : Lossy
Bits/(Pixel*Frame) : 0.299
Time code of first frame : 00:00:00:00
Time code source : Group of pictures header
GOP, Open/Closed : Open
Stream size : 2.32 GiB (89%)
Audio
ID : 4352 (0x1100)
Menu ID : 1 (0x1)
Format : MPEG Audio
Format version : Version 1
Format profile : Layer 2
Mode : Joint stereo
Mode extension : Intensity Stereo + MS Stereo
Codec ID : 4
Duration : 1h 47mn
Bit rate mode : Constant
Bit rate : 192 Kbps
Channel(s) : 2 channels
Sampling rate : 48.0 KHz
Compression mode : Lossy
Delay relative to video : 14ms
Stream size : 147 MiB (6%)
Language : Russian
Скриншот c названием фильма Скриншоты
Скачать

Скачать торрент!

Как скачивать? · Что такое торрент? · Рейтинг и ограничения

Сайт не распространяет и не хранит электронные версии произведений, а лишь предоставляет доступ к создаваемому пользователями каталогу ссылок на торрент-файлы, которые содержат только списки хеш-сумм

[Профиль] [ЛС]
Показать сообщения:    
Ответить на тему

Текущее время: Сегодня 05:52

Часовой пояс: GMT + 4



Вы не можете начинать темы
Вы не можете отвечать на сообщения
Вы не можете редактировать свои сообщения
Вы не можете удалять свои сообщения
Вы не можете голосовать в опросах
Вы не можете прикреплять файлы к сообщениям
Вы не можете скачивать файлы