Любовь вразнос / Papa ou maman (Мартин Бурбулон / Martin Burbulon) [2015, Франция, Бельгия, Комедия, BDRip-AVC] Dub

Ответить на тему
 
Автор Сообщение

user ®

Стаж: 7 лет 7 месяцев

Сообщений: 20008

Пост Пост: #1 от 11-Окт-2015 17:18

[Цитировать]

Любовь вразносPapa ou maman«Хочешь войны»

Страна: Франция, Бельгия
Жанр: Комедия
Год выпуска: 2015
Продолжительность: 01:23:57
Перевод: Профессиональный (дублированный) Bluray
Cубтитры: нет
Оригинальная аудиодорожка: нет
Режиссер: Мартин Бурбулон / Martin Burbulon
В ролях: Лоран Лафитт, Марина Фоис, Александр Десрусу, Анна Лемаршан, Акилле Потье, Жюдит Эль Зейн, Микаэль Абитбуль, Ванесса Гуид, Мишель Вюйермоз, Анн Лё Ни, Ив Верховен, Янник Шуара, Жан-Баптист Фонк, Теолин Ланкрие, Мирей Франчино, Эрик Наггар, Пьер Сэмюэл, Лилия-Флёр Пуанто, Дэнис Лелюк, Эстебан Тигаргар
Описание: Они безбашенные и отвязные, и любят вразнос. Изменило ли их время и обстоятельства? Чтобы проверить это, они идут на крайние меры - объявляют друг другу войну. А на войне, как известно, все средства хороши.
Доп. информация:
Релиз группы:
Качество видео: BDRip-AVC | Любовь вразнос / Papa ou maman (2015) Blu-ray Disc [RUS] -BLUEBIRD
Формат видео: MKV
Видео: 1146x480 (2:40:1), 25,00 fps, 3693 Кbps, 0.269 bit/pixe
Аудио: 48 kHz, AC3 Dolby Digital, 3/2 (L,C,R,l,r) + LFE ch, ~448.00 kbps avg DUB

MediaInfo
General
Unique ID : 189049962700124483822966958627478691875 (0x8E39B2CB5268011A8DFFA490FE55E023)
Complete name : E:\Мои рипы\Любовь в разнос\Papa ou maman by_IVAN@190282.mkv
Format : Matroska
Format version : Version 4 / Version 2
File size : 2.38 GiB
Duration : 1h 20mn
Overall bit rate : 4 225 Kbps
Encoded date : UTC 2015-09-16 17:56:43
Writing application : mkvmerge v8.2.0 ('World of Adventure') 64bit
Writing library : libebml v1.3.1 + libmatroska v1.4.2
DURATION : 01:20:38.528000000
NUMBER_OF_FRAMES : 151204
NUMBER_OF_BYTES : 270957568
_STATISTICS_WRITING_APP : mkvmerge v8.2.0 ('World of Adventure') 64bit
_STATISTICS_WRITING_DATE_UT : 2015-09-16 17:56:43
_STATISTICS_TAGS : BPS DURATION NUMBER_OF_FRAMES NUMBER_OF_BYTES
Video
ID : 1
Format : AVC
Format/Info : Advanced Video Codec
Format profile : High@L4.1
Format settings, CABAC : Yes
Format settings, ReFrames : 12 frames
Codec ID : V_MPEG4/ISO/AVC
Duration : 1h 20mn
Bit rate : 3 693 Kbps
Width : 1 146 pixels
Height : 480 pixels
Display aspect ratio : 2.40:1
Frame rate mode : Constant
Frame rate : 25.000 fps
Color space : YUV
Chroma subsampling : 4:2:0
Bit depth : 8 bits
Scan type : Progressive
Bits/(Pixel*Frame) : 0.269
Stream size : 2.08 GiB (87%)
Title : Papa ou maman by_IVAN@190282
Writing library : x264 core 148 r2597kMod e86f3a1
Encoding settings : cabac=1 / ref=12 / deblock=1:-3:-2 / analyse=0x3:0x133 / me=umh / subme=11 / psy=1 / fade_compensate=0.00 / psy_rd=1.00:0.05 / mixed_ref=1 / me_range=48 / chroma_me=1 / trellis=2 / 8x8dct=1 / cqm=0 / deadzone=21,11 / fast_pskip=0 / chroma_qp_offset=-3 / threads=6 / lookahead_threads=6 / sliced_threads=0 / nr=0 / decimate=1 / interlaced=0 / bluray_compat=0 / constrained_intra=0 / fgo=0 / bframes=16 / b_pyramid=2 / b_adapt=2 / b_bias=0 / direct=3 / weightb=1 / open_gop=0 / weightp=2 / keyint=240 / keyint_min=24 / scenecut=40 / intra_refresh=0 / rc_lookahead=60 / rc=crf / mbtree=0 / crf=16.7000 / qcomp=0.60 / qpmin=0 / qpmax=69 / qpstep=4 / vbv_maxrate=50000 / vbv_bufsize=62500 / crf_max=0.0 / nal_hrd=none / filler=0 / ip_ratio=1.40 / pb_ratio=1.30 / aq=2:1.10
Language : English
Default : Yes
Forced : No
Color range : Limited
Color primaries : BT.709
Transfer characteristics : BT.709
Matrix coefficients : BT.709
DURATION : 01:20:38.520000000
NUMBER_OF_FRAMES : 120963
NUMBER_OF_BYTES : 2283567042
_STATISTICS_WRITING_APP : mkvmerge v8.2.0 ('World of Adventure') 64bit
_STATISTICS_WRITING_DATE_UT : 2015-09-16 17:56:43
_STATISTICS_TAGS : BPS DURATION NUMBER_OF_FRAMES NUMBER_OF_BYTES
Audio
ID : 2
Format : AC-3
Format/Info : Audio Coding 3
Mode extension : CM (complete main)
Format settings, Endianness : Big
Codec ID : A_AC3
Duration : 1h 20mn
Bit rate mode : Constant
Bit rate : 448 Kbps
Channel(s) : 6 channels
Channel positions : Front: L C R, Side: L R, LFE
Sampling rate : 48.0 KHz
Compression mode : Lossy
Stream size : 258 MiB (11%)
Title : Dub
Language : Russian
Default : Yes
Forced : No
Menu
00:00:00.000 : en:Chapter 1
00:07:33.411 : en:Chapter 2
00:12:00.302 : en:Chapter 3
00:12:59.445 : en:Chapter 4
00:15:55.370 : en:Chapter 5
00:20:56.922 : en:Chapter 6
00:23:15.434 : en:Chapter 7
00:25:52.675 : en:Chapter 8
00:29:59.255 : en:Chapter 9
00:38:14.041 : en:Chapter 10
00:46:43.842 : en:Chapter 11
00:49:46.315 : en:Chapter 12
00:53:19.528 : en:Chapter 13
00:55:10.222 : en:Chapter 14
00:58:07.858 : en:Chapter 15
01:08:42.326 : en:Chapter 16
01:12:22.337 : en:Chapter 17
01:15:45.707 : en:Chapter 18
01:19:10.162 : en:Chapter 19
x264 log
x264 [info]: frame I:897 Avg QP:15.36 size: 79556 PSNR Mean Y:49.34 U:52.16 V:52.78 Avg:50.14 Global:49.10
x264 [info]: frame P:30018 Avg QP:16.56 size: 33265 PSNR Mean Y:47.92 U:50.64 V:51.16 Avg:48.68 Global:47.62
x264 [info]: frame B:90048 Avg QP:17.72 size: 13478 PSNR Mean Y:47.31 U:50.22 V:50.94 Avg:48.12 Global:46.70
x264 [info]: consecutive B-frames: 3.7% 5.2% 9.1% 29.1% 19.0% 21.8% 7.7% 1.0% 0.9% 0.3% 0.2% 0.1% 0.4% 0.1% 0.2% 0.3% 0.9%
x264 [total]: encoded 120963 frames, 6.98 fps, 3775.65 kb/s, duration 4:49:01.02
Скриншот c названием фильма Скриншоты
Скачать

Скачать торрент!

Как скачивать? · Что такое торрент? · Рейтинг и ограничения

Сайт не распространяет и не хранит электронные версии произведений, а лишь предоставляет доступ к создаваемому пользователями каталогу ссылок на торрент-файлы, которые содержат только списки хеш-сумм

[Профиль] [ЛС]
Показать сообщения:    
Ответить на тему

Текущее время: Сегодня 18:39

Часовой пояс: GMT + 4



Вы не можете начинать темы
Вы не можете отвечать на сообщения
Вы не можете редактировать свои сообщения
Вы не можете удалять свои сообщения
Вы не можете голосовать в опросах
Вы не можете прикреплять файлы к сообщениям
Вы не можете скачивать файлы