Похождения Мюнхгаузена (со звуком) (Даниил Черкес) [1929, Рисованный мультфильм, DVDRip]

Ответить на тему
 
Автор Сообщение

user ®

Стаж: 7 лет 7 месяцев

Сообщений: 20008

Пост Пост: #1 от 10-Окт-2015 22:42

[Цитировать]

Похождения Мюнхгаузена (со звуком)
Страна: СССР
Жанр: Рисованный мультфильм
Продолжительность: 00:18:14
Год выпуска: 1929
Русские субтитры: нет
Режиссёр: Даниил Черкес
Описание: Первая отечественная анимационная версия книги Рудольфа Эриха Распе о великом выдумщике. Барон Мюнхгаузен, известный хвастун и враль, спрыгивает с титульного листа своих «Воспоминаний» и начинает рассказ о необычайных приключениях, которые случились с ним во время охоты за хитрой лисой.
Доп. информация:
" Межрабпом-Фильм"
Звуковое сопровождение: записи ансамбля электромузыкальных инструментов под управлением Вячеслава Валериановича Мещерина
Сценарий:Н.Сац,Д.Черкес
Художники:И.Иванов-Вано,В Сутеев,В.Валерианова.
Раздача группы:
РИП и компиляция звукового сопровождения by Suetorp
Качество: DVDRip
Формат: AVI
Видео: 720x560 (1.29:1), 25 fps, XviD build 62 ~2496 kbps avg, 0.25 bit/pixel
Аудио: 48 kHz, MPEG Layer 3, 2 ch, ~320.00 kbps avg
Субтитры: Интертитры
Подробные технические данные
Format : AVIFormat/Info : Audio Video InterleaveFile size : 368 MiBDuration : 18mn 14sOverall bit rate : 2 824 Kbps
VideoID : 0Format : MPEG-4 VisualFormat profile : Advanced Simple@L5Format settings, BVOP : NoFormat settings, QPel : NoFormat settings, GMC : No warppointsFormat settings, Matrix : Default (H.263)Codec ID : XVIDCodec ID/Hint : XviDDuration : 18mn 14sBit rate : 2 496 KbpsWidth : 720 pixelsHeight : 560 pixelsDisplay aspect ratio : 1.286Frame rate : 25.000 fpsColor space : YUVChroma subsampling : 4:2:0Bit depth : 8 bitsScan type : ProgressiveCompression mode : LossyBits/(Pixel*Frame) : 0.248Stream size : 326 MiB (88%)Writing library : XviD 62
AudioID : 1Format : MPEG AudioFormat version : Version 1Format profile : Layer 3Codec ID : 55Codec ID/Hint : MP3Duration : 18mn 14sBit rate mode : ConstantBit rate : 320 KbpsChannel(s) : 2 channelsSampling rate : 48.0 KHzCompression mode : LossyStream size : 41.8 MiB (11%)Alignment : Aligned on interleavesInterleave, duration : 80 ms (2.00 video frames)Writing library : LAMELAME_MAJOR_VERSI
от автора рипа
«Какое созвездие имён: Даниил Черкес, Наталия Сац, Владимир Сутеев, Иван Иванов-Вано, Вера Валерианова. Такое сокровище - и без звука! Непорядок... Исправил, как мог.
При звуковом оформлении, с огромным удовольствием воспользовался записями ансамбля электромузыкальных инструментов под управлением Вячеслава Валериановича Мещерина.»
Скриншоты
Скачать

Скачать торрент!

Как скачивать? · Что такое торрент? · Рейтинг и ограничения

Сайт не распространяет и не хранит электронные версии произведений, а лишь предоставляет доступ к создаваемому пользователями каталогу ссылок на торрент-файлы, которые содержат только списки хеш-сумм

[Профиль] [ЛС]
Показать сообщения:    
Ответить на тему

Текущее время: Сегодня 23:15

Часовой пояс: GMT + 4



Вы не можете начинать темы
Вы не можете отвечать на сообщения
Вы не можете редактировать свои сообщения
Вы не можете удалять свои сообщения
Вы не можете голосовать в опросах
Вы не можете прикреплять файлы к сообщениям
Вы не можете скачивать файлы