Развод по собственному желанию (Илья Северов) [2015, Россия, комедия, мелодрама, WEB-DLRip]

Ответить на тему
 
Автор Сообщение

user ®

Стаж: 7 лет 7 месяцев

Сообщений: 20008

Пост Пост: #1 от 10-Окт-2015 16:30

[Цитировать]

Развод по собственному желаниюСтрана: Россия
Год выпуска: 2015
Жанр: комедия, мелодрама
Продолжительность: 01:25:17-Режиссер: Илья Северов-В ролях: Константин Юшкевич, Наталья Суркова, Юрий Гальцев, Наталья Ткаченко, Вячеслав Коробицин, Любовь Виролайнен (мл.), Сергей Шелгунов, Антон Пулит, Артемий Веселов, Екатерина Зорина, Артём Анчуков, Андрей Полищук, Ринат Муталлапов, Дарья Шевелько, Лайма Рожукайте, Геннадий Свирь, Артур Мкртчян, Александр Манько (II), Иван Ефремов (II)
--Тренер, велогонщик в прошлом, Сергей и основательница сети книжных магазинов Елена уже двадцать лет вместе. Из неожиданно разгоревшейся супружеской ссоры возникает серьезный скандал, грозящий перерасти в развод. Сиюминутное решение Сергея — начать все заново. Он уходит из дома и не подозревает, что жизнь может кардинально поменяться всего за несколько часов. Круговерть невероятных приключений, в которые втягивает лучший друг, и безумных ситуаций с близкими проверят на прочность крепость семейных уз Сергея и Елены.-
-
Сэмпл: http://sendfile.su/1162945
Качество видео: WEB-DLRip
Исходник: WEB-DLRip 720p
Формат видео: AVI
Видео: XviD (1.2.2) 1000kbps 704x368 25.000fps
Аудио: MP3 128kbps 2ch 16bit 48000khz

MediaInfo
MediaInfoLib - v0.7.62
General
Complete name : F:\Мои раздачи 2\Pa3B0d.po.C0BmeCH0my.Zhelaniu.2015.O.WEB-DLRip.720p.avi
Format : AVI
Format/Info : Audio Video Interleave
File size : 694 MiB
Duration : 1h 25mn
Overall bit rate : 1 138 Kbps
Writing application : VirtualDubMod 1.5.10.3 | www.virtualdub-fr.org || (build 2550/release)
Writing library : VirtualDubMod build 2550/release
Video
ID : 0
Format : MPEG-4 Visual
Format profile : Advanced Simple@L5
Format settings, BVOP : 1
Format settings, QPel : No
Format settings, GMC : No warppoints
Format settings, Matrix : Default (H.263)
Codec ID : XVID
Codec ID/Hint : XviD
Duration : 1h 25mn
Bit rate : 1 000 Kbps
Width : 704 pixels
Height : 368 pixels
Display aspect ratio : 1.913
Frame rate : 25.000 fps
Color space : YUV
Chroma subsampling : 4:2:0
Bit depth : 8 bits
Scan type : Progressive
Compression mode : Lossy
Bits/(Pixel*Frame) : 0.154
Stream size : 610 MiB (88%)
Writing library : XviD 1.2.1 (UTC 2008-12-04)
Audio
ID : 1
Format : MPEG Audio
Format version : Version 1
Format profile : Layer 3
Codec ID : 55
Codec ID/Hint : MP3
Duration : 1h 25mn
Bit rate mode : Constant
Bit rate : 128 Kbps
Channel(s) : 2 channels
Sampling rate : 48.0 KHz
Compression mode : Lossy
Stream size : 78.1 MiB (11%)
Alignment : Aligned on interleaves
Interleave, duration : 40 ms (1.00 video frame)
Interleave, preload duration : 504 ms
Writing library : LAME3.99r
Encoding settings : -m s -V 4 -q 2 -lowpass 17 -b 128
Скриншот c названием фильма Скриншоты
Скачать

Скачать торрент!

Как скачивать? · Что такое торрент? · Рейтинг и ограничения

Сайт не распространяет и не хранит электронные версии произведений, а лишь предоставляет доступ к создаваемому пользователями каталогу ссылок на торрент-файлы, которые содержат только списки хеш-сумм

[Профиль] [ЛС]
Показать сообщения:    
Ответить на тему

Текущее время: Сегодня 18:11

Часовой пояс: GMT + 4



Вы не можете начинать темы
Вы не можете отвечать на сообщения
Вы не можете редактировать свои сообщения
Вы не можете удалять свои сообщения
Вы не можете голосовать в опросах
Вы не можете прикреплять файлы к сообщениям
Вы не можете скачивать файлы