Hot Wheels. Мегатрасса / Team Hot Wheels. Build the Epic Race (Мэтт Дэннер / Matt Danner) [2015, приключения, семейный, детский, DVB] Dub

Ответить на тему
 
Автор Сообщение

user ®

Стаж: 13 лет

Сообщений: 15041

Пост Пост: #1 от 10-Окт-2015 01:03

[Цитировать]

Hot Wheels. Мегатрасса / Team Hot Wheels. Build the Epic Race
Год выпуска: 2015
Страна: США
Жанр: приключения, семейный, детский
Продолжительность: 00:42:21
Перевод: Профессиональный (дублированный)
Русские субтитры: нет
Режиссёр: Мэтт Дэннер / Matt Danner
Описание: Герои команды Хот Вилс построили для жителей города невероятную Мегатрассу для ежегодных городских Мегагонок. Но в Хот Вилс Сити не обошлось без форс-мажора - на город напали дорожные пираты! Друзьям придется приложить огромные усилия, чтобы освободить Уайта и спасти жителей города от катастрофы.
Доп. информация: запись (захват) спутниковой трансляции канала "Дисней"., конечные титры немного ускорены ...
Релиз группы:
Семпл: https://yadi.sk/i/N2JGWYKZjdZCs
Качество видео: DVB
Формат видео: MPEG-TS
Видео: MPEG4 Video (H264), 720x576@785x576 (4:3), анаморф, 25 fps, 2200 kbps
Аудио: MPEG Audio, 2 сh, 48 kHz, 192 kbps
MediaInfo
D:\Team Hot Wheels. Мегатрасса. (2015)_DVB by SLuMeP.ts
General #1
ID : 1 (0x1)
Complete name : D:\Team Hot Wheels. Мегатрасса. (2015)_DVB by SLuMeP.ts
Format : MPEG-TS
File size : 771 MiB
Duration : 42mn 21s
Overall bit rate mode : Variable
Overall bit rate : 2 545 Kbps
Video #2564
ID : 2564 (0xA04)
Menu ID : 1 (0x1)
Format : AVC
Format/Info : Advanced Video Codec
Format profile : Main@L3.0
Format settings, CABAC : Yes
Format settings, ReFrames : 4 frames
Format settings, GOP : M=8, N=24
Codec ID : 27
Duration : 42mn 21s
Bit rate : 2 225 Kbps
Width : 720 pixels
Height : 576 pixels
Display aspect ratio : 4:3
Frame rate : 25.000 fps
Standard : PAL
Color space : YUV
Chroma subsampling : 4:2:0
Bit depth : 8 bits
Scan type : MBAFF
Bits/(Pixel*Frame) : 0.215
Stream size : 674 MiB (87%)
Color primaries : BT.601 PAL
Transfer characteristics : BT.470 System B, BT.470 System G
Matrix coefficients : BT.601
Audio #3564
ID : 3564 (0xDEC)
Menu ID : 1 (0x1)
Format : MPEG Audio
Format version : Version 1
Format profile : Layer 2
Codec ID : 3
Duration : 42mn 21s
Bit rate mode : Constant
Bit rate : 192 Kbps
Channel(s) : 2 channels
Sampling rate : 48.0 KHz
Compression mode : Lossy
Stream size : 58.2 MiB (8%)
Language : Russian
Скриншоты
Скачать

Скачать торрент! Hot Wheels. Мегатрасса / Team Hot Wheels. Build the Epic Race (Мэтт Дэннер / Matt Danner) [2015, приключения, семейный, детский, DVB] Dub

Как скачивать? · Что такое торрент? · Рейтинг и ограничения

Сайт не распространяет и не хранит электронные версии произведений, а лишь предоставляет доступ к создаваемому пользователями каталогу ссылок на торрент-файлы, которые содержат только списки хеш-сумм

[Профиль] [ЛС]
Показать сообщения:    
Ответить на тему

Текущее время: Сегодня 04:15

Часовой пояс: GMT + 4



Вы не можете начинать темы
Вы не можете отвечать на сообщения
Вы не можете редактировать свои сообщения
Вы не можете удалять свои сообщения
Вы не можете голосовать в опросах
Вы не можете прикреплять файлы к сообщениям
Вы не можете скачивать файлы