Сумерки / Twilight (Роберт Бентон / Robert Benton) [1998, США, детектив, WEB-DL 720p] MVO + Sub Eng + Original Eng

Ответить на тему
 
Автор Сообщение

user ®

Стаж: 7 лет 7 месяцев

Сообщений: 20008

Пост Пост: #1 от 09-Окт-2015 18:51

[Цитировать]

Сумерки / Twilight
-Страна: США
Жанр: детектив
Год выпуска: 1986
Продолжительность: 01:34:22-Перевод : Профессиональный (многоголосый закадровый)
Cубтитры: английские
Оригинальная аудиодорожка: английский-Режиссер: Роберт Бентон / Robert Benton-В ролях: Пол Ньюман, Сьюзан Сарандон, Джин Хэкман, Стокард Ченнинг, Риз Уизерспун-Описание:
"Сумерки" - это таинственная история убийства с по-настоящему сенсационным актерским составом!
Гарри Росс, уставший от жизни частный сыщик, расследует таинственное убийство, связанное с давнишним нераскрытым делом, в котором смешались голливудский мир элиты и нищеты, интриги и махинации, сексуальность и разочарование, вера и обман...-Сэмпл: Скачать-Тип релиза: WEB-DL 720p
Контейнер: MKV-Видео: 1280x718 (16:9); 3 931 Kbps; 23.976 fps; 0.178 bpp
Аудио 1: Russian; AC3; 48.0 KHz; 2ch; 192 Kbps
Аудио 2: English; AC3; 48.0 KHz; 6ch; 384 Kbps
MediaInfo
Format : Matroska
Format version : Version 2
File size : 3.03 GiB
Duration : 1h 34mn
Overall bit rate : 4 599 Kbps
Encoded date : UTC 2013-07-06 15:07:10
Writing application : mkvmerge v5.0.1 ('Es ist Sommer') built on Oct 9 2011 11:55:43
Writing library : libebml v1.2.2 + libmatroska v1.3.0
Video
ID : 1
Format : AVC
Format/Info : Advanced Video Codec
Format profile : High@L3.1
Format settings, CABAC : No
Format settings, ReFrames : 2 frames
Codec ID : V_MPEG4/ISO/AVC
Duration : 1h 34mn
Bit rate : 3 931 Kbps
Width : 1 280 pixels
Height : 718 pixels
Display aspect ratio : 16:9
Frame rate mode : Constant
Frame rate : 23.976 fps
Color space : YUV
Chroma subsampling : 4:2:0
Bit depth : 8 bits
Scan type : Progressive
Bits/(Pixel*Frame) : 0.178
Stream size : 2.59 GiB (85%)
Language : English
Default : Yes
Forced : No
Color primaries : BT.709
Transfer characteristics : BT.709
Matrix coefficients : BT.709
Audio #1
ID : 2
Format : AC-3
Format/Info : Audio Coding 3
Mode extension : CM (complete main)
Format settings, Endianness : Big
Codec ID : A_AC3
Duration : 1h 34mn
Bit rate mode : Constant
Bit rate : 192 Kbps
Channel(s) : 2 channels
Channel positions : Front: L R
Sampling rate : 48.0 KHz
Bit depth : 16 bits
Compression mode : Lossy
Stream size : 130 MiB (4%)
Title : MVO
Language : Russian
Default : Yes
Forced : No
Audio #2
ID : 3
Format : AC-3
Format/Info : Audio Coding 3
Mode extension : CM (complete main)
Format settings, Endianness : Big
Codec ID : A_AC3
Duration : 1h 34mn
Bit rate mode : Constant
Bit rate : 384 Kbps
Channel(s) : 6 channels
Channel positions : Front: L C R, Side: L R, LFE
Sampling rate : 48.0 KHz
Bit depth : 16 bits
Compression mode : Lossy
Stream size : 259 MiB (8%)
Language : English
Default : No
Forced : No
Text
ID : 4
Format : UTF-8
Codec ID : S_TEXT/UTF8
Codec ID/Info : UTF-8 Plain Text
Language : English
Default : No
Forced : No
Menu
00:00:00.000 : en:Puerto Vallarta,Mexico
00:04:33.000 : en:Los Angeles,Two Years Later
00:07:16.000 : en:No Longer In Remission
00:12:13.000 : en:Lester Ivar
00:18:22.000 : en:A Few Questions
00:22:03.000 : en:Raymond Hope
00:24:40.000 : en:Bal A Versailles Perfume
00:27:59.000 : en:We're Broke
00:32:59.000 : en:Gloria Lamar
00:37:52.000 : en:Reuben
00:40:35.000 : en:Billy Sullivan's Suicide
00:47:32.000 : en:Jack Comes Home,"You Haven't Said Your Sorry."
00:51:48.000 : en:The Ranch House
00:55:23.000 : en:Garvey's BBQ
00:58:21.000 : en:"All My Life I Picked the Losers."
01:05:12.000 : en:Let Me Go
01:07:21.000 : en:Digging Up The Past
01:09:37.000 : en:Somebody Else's Girl
01:16:14.000 : en:There's Them And There's Us
01:22:06.000 : en:Enough Truth
01:25:38.000 : en:Still Love Me?
01:28:26.000 : en:Catilna
01:29:40.000 : en:Credits
Скриншоты
Скачать

Скачать торрент!

Как скачивать? · Что такое торрент? · Рейтинг и ограничения

Сайт не распространяет и не хранит электронные версии произведений, а лишь предоставляет доступ к создаваемому пользователями каталогу ссылок на торрент-файлы, которые содержат только списки хеш-сумм

[Профиль] [ЛС]
Показать сообщения:    
Ответить на тему

Текущее время: Сегодня 10:56

Часовой пояс: GMT + 4



Вы не можете начинать темы
Вы не можете отвечать на сообщения
Вы не можете редактировать свои сообщения
Вы не можете удалять свои сообщения
Вы не можете голосовать в опросах
Вы не можете прикреплять файлы к сообщениям
Вы не можете скачивать файлы