Тор 2: Царство тьмы / Thor: The Dark World (Алан Тейлор / Alan Taylor) [2013, США, фэнтези, боевик, приключения, BDRip 1080p] Dub + AVO (Гаврилов) + Sub Rus, Eng + Original Eng

Ответить на тему
 
Автор Сообщение

user ®

Стаж: 7 лет 7 месяцев

Сообщений: 20008

Пост Пост: #1 от 09-Окт-2015 18:51

[Цитировать]

Тор 2: Царство тьмы / Thor: The Dark World
Страна: США
Жанр: фэнтези, боевик, приключения
Год выпуска: 2013
Продолжительность: 01:52:03
Перевод 1: Профессиональный (дублированный)
Перевод 2: Авторский (одноголосый закадровый) Гаврилов
Cубтитры: Russian (Forced, iTunes), Russian (iTunes), English (Forced, iTunes), English, English (SDH), English (SDH-COLORED), English (Commentary), English (Commentary, SDH)
Оригинальная аудиодорожка: английский-Режиссер: Алан Тейлор / Alan Taylor-В ролях: Крис Хемсворт, Натали Портман, Том Хиддлстон, Энтони Хопкинс, Джейми Александер, Рэй Стивенсон, Кэт Деннингс, Идрис Эльба, Стеллан Скарсгард, Рене Руссо, Кристофер Экклстон, Стэн Ли, Адевале Акинойе-Агбаже-Описание: Тору предстоит сразиться за спасение Земли и Девяти Миров от таинственного врага из времен, предшествовавших возникновению вселенной. После событий «Тора» и «Мстителей» главный герой борется за восстановление порядка в космосе, но древняя раса во главе с мстительным Малекитом возвращается, чтобы погрузить вселенную обратно во тьму. Столкнувшись с врагом, которому не способен противостоять ни Один, ни весь Асгард, Тор отправляется в самое рискованное путешествие, которое воссоединит его с Джейн Фостер с Земли и заставит пожертвовать всем ради спасения вселенной.-Релиз от: -Сэмпл: http://sendfile.su/1162308-Качество видео: BDRip
Формат видео: MKV
Видео: 1920x800 at 23.976 fps, x264@L4.1, CRF15, ~16190 kbps avg
Аудио 1: Russian: 48 kHz, AC3, 3/2 (L,C,R,l,r) + LFE ch, ~640.00 kbps avg |Дубляж, Blu-ray CEE|
Аудио 2: Russian: 48 kHz, DTS, 3/2 (L,C,R,l,r) + LFE ch, ~768.00 kbps avg |А.Гаврилов|
Аудио 3: English: 48 kHz, DTS, 3/2 (L,C,R,l,r) + LFE ch, ~1536.00 kbps avg
Аудио 4: English: 48 kHz, AC3, 2/0 (L,R) ch, ~192.00 kbps avg |Commentary with Director Alan Taylor, Cinematographer Kramer Morgenthau, Producer and Marvel Studios President Kevin Feige, and Actor Tom Hiddleston|-Дополнительно
Цитата:
Сохранены и подписаны оригинальные главы как на Blu-ray.
За дорожку с переводом Андрея Гаврилова спасибо Andrey_Tula.
Исходный WEB-DL куплен в рамках сервиса "Копилка".
MediaInfo
General
Unique ID                                : 171922832754652638922484850855448002284 (0x8157221799954CD7BD619B0FCCEDBEEC)
Complete name                            : E:\Релизы\Thor.The.Dark.World.2013.1080p.BluRay.DTS.2xRus.2xEng.HDCLUB.mkv
Format                                   : Matroska
Format version                           : Version 2
File size                                : 15.1 GiB
Duration                                 : 1h 52mn
Overall bit rate                         : 19.3 Mbps
Movie name                               : Thor: The Dark World (2013) - Release for HDCLUB
Encoded date                             : UTC 2014-04-21 12:27:58
Writing application                      : mkvmerge v3.4.0 ('Rapunzel') built on May 15 2010 09:38:20
Writing library                          : libebml v0.8.0 + libmatroska v0.9.0
Video
ID                                       : 1
Format                                   : AVC
Format/Info                              : Advanced Video Codec
Format profile                           : High@L4.1
Format settings, CABAC                   : Yes
Format settings, ReFrames                : 5 frames
Codec ID                                 : V_MPEG4/ISO/AVC
Duration                                 : 1h 52mn
Bit rate                                 : 15.8 Mbps
Width                                    : 1 920 pixels
Height                                   : 800 pixels
Display aspect ratio                     : 2.40:1
Frame rate                               : 23.976 fps
Color space                              : YUV
Chroma subsampling                       : 4:2:0
Bit depth                                : 8 bits
Scan type                                : Progressive
Bits/(Pixel*Frame)                       : 0.430
Stream size                              : 12.4 GiB (82%)
Title                                    : Thor: The Dark World (2013) - Release for HDCLUB
Writing library                          : x264 core 140 r2377kMod 1ca7bb9
Encoding settings                        : cabac=1 / ref=5 / deblock=1:-3:-3 / analyse=0x3:0x113 / me=umh / subme=11 / psy=1 / fade_compensate=0.00 / psy_rd=1.07:0.00 / mixed_ref=1 / me_range=32 / chroma_me=1 / trellis=2 / 8x8dct=1 / cqm=0 / deadzone=21,11 / fast_pskip=0 / chroma_qp_offset=-2 / threads=6 / lookahead_threads=1 / sliced_threads=0 / nr=0 / decimate=0 / interlaced=0 / bluray_compat=0 / constrained_intra=0 / fgo=0 / bframes=8 / b_pyramid=2 / b_adapt=2 / b_bias=0 / direct=3 / weightb=1 / open_gop=0 / weightp=2 / keyint=250 / keyint_min=24 / scenecut=40 / intra_refresh=0 / rc_lookahead=50 / rc=crf / mbtree=0 / crf=15.0000 / qcomp=0.72 / qpmin=0 / qpmax=69 / qpstep=4 / vbv_maxrate=38000 / vbv_bufsize=30000 / crf_max=0.0 / nal_hrd=none / filler=0 / ip_ratio=1.40 / pb_ratio=1.10 / aq=1:0.85 / zones=500,671,crf=13.9/9072,9147,crf=13.9/9219,9288,crf=13.9/9324,9340,crf=13.9/9523,9542,crf=13.9/9577,9587,crf=13.9/9842,9860,crf=13.9/9883,9966,crf=13.9/10103,10161,crf=13.9/10296,10321,crf=13.9/10439,10464,crf=13.9/10681,10690,crf=13.9/11485,11555,crf=13.9/11691,11773,crf=13.9/12068,12106,crf=13.9/12129,12193,crf=13.9/12691,12797,crf=13.9/12843,13023,crf=13.9/13213,13696,crf=13.9/18834,18914,crf=13.9/19365,19471,crf=13.9/19531,19663,crf=13.9/19713,19743,crf=13.9/20067,20152,crf=13.9/20171,20269,crf=13.9/20323,20364,crf=13.9/20474,20500,crf=13.9/21568,21619,crf=13.9/21719,21780,crf=13.9/23008,23059,crf=13.9/23768,24418,crf=13.9/25943,26021,crf=13.9/26137,26180,crf=13.9/35958,35995,crf=13.9/36337,36448,crf=13.9/37987,38087,crf=13.9/38144,38184,crf=13.9/38226,38325,crf=13.9/38382,38433,crf=13.9/38632,38762,crf=13.9/38937,39038,crf=13.9/40459,40505,crf=13.9/40586,40657,crf=13.9/40716,40763,crf=13.9/40805,40820,crf=13.9/40853,40877,crf=13.9/41142,41636,crf=13.9/43163,43222,crf=13.9/43696,43803,crf=13.9/45276,45350,crf=13.9/48845,48883,crf=13.9/50413,50675,crf=13.9/50843,51101,crf=13.9/51180,51447,crf=13.9/51762,51933,crf=13.9/52143,52252,crf=13.9/52374,52505,crf=13.9/53086,53198,crf=13.9/53283,53416,crf=13.9/53491,53573,crf=13.9/53636,53684,crf=13.9/53754,53846,crf=13.9/54439,54686,crf=13.9/54796,54873,crf=13.9/54920,54988,crf=13.9/55266,55278,crf=13.9/55538,55557,crf=13.9/55766,55799,crf=13.9/55895,55913,crf=13.9/55972,56016,crf=13.9/56510,56601,crf=13.9/56713,56765,crf=13.9/57180,57231,crf=13.9/57264,57459,crf=13.9/57551,57591,crf=13.9/58351,58371,crf=13.9/61370,61463,crf=13.9/61912,61998,crf=13.9/63329,63422,crf=13.9/63694,63891,crf=13.9/64701,64725,crf=13.9/65062,65132,crf=13.9/65910,65966,crf=13.9/66342,66593,crf=13.9/66976,67061,crf=13.9/67169,67316,crf=13.9/70062,70116,crf=13.9/70266,70324,crf=13.9/71378,71453,crf=13.9/72000,72640,crf=13.9/72933,72981,crf=13.9/73539,73977,crf=13.9/76795,77204,crf=13.9/80891,81187,crf=13.9/81253,81388,crf=13.9/81420,81551,crf=13.9/82182,82249,crf=13.9/82287,82336,crf=13.9/82437,82649,crf=13.9/84540,84734,crf=13.9/84985,85044,crf=13.9/85121,85251,crf=13.9/85427,85648,crf=13.9/85886,85976,crf=13.9/86078,86114,crf=13.9/86277,86449,crf=13.9/87916,88018,crf=13.9/88063,88370,crf=13.9/89374,89452,crf=13.9/90257,90386,crf=13.9/90413,90449,crf=13.9/93348,93383,crf=13.9/93449,93512,crf=13.9/93716,93914,crf=13.9/94025,94206,crf=13.9/94260,94351,crf=13.9/94402,94450,crf=13.9/95493,95536,crf=13.9/95673,96356,crf=13.9/96546,96588,crf=13.9/96746,96773,crf=13.9/96819,96857,crf=13.9/96895,97002,crf=13.9/97025,98125,crf=13.9/99404,101375,crf=13.9/101458,101528,crf=13.9/102000,102043,crf=13.9/102218,102795,crf=13.9/103499,103572,crf=13.9/103760,103988,crf=13.9/104050,104459,crf=13.9/105273,106433,crf=13.9/107242,107412,crf=13.9/107960,108050,crf=13.9/108123,108206,crf=13.9/108579,108687,crf=13.9/108802,108945,crf=13.9/109292,109365,crf=13.9/109693,109784,crf=13.9/109844,110127,crf=13.9/110449,110770,crf=13.9/111122,111455,crf=13.9/111500,111566,crf=13.9/112285,112352,crf=13.9/112497,112818,crf=13.9/113744,114047,crf=13.9/114094,114143,crf=13.9/114294,114603,crf=13.9/114806,114921,crf=13.9/115017,115189,crf=13.9/115293,115402,crf=13.9/115506,115565,crf=13.9/115668,115752,crf=13.9/115825,115911,crf=13.9/116259,116351,crf=13.9/117350,117520,crf=13.9/118563,118700,crf=13.9/119494,119703,crf=13.9/120383,120426,crf=13.9/121168,121224,crf=13.9/123768,123791,crf=13.9/124748,124980,crf=13.9/125683,126046,crf=13.9/126315,126447,crf=13.9/126703,127148,crf=13.9/127312,127387,crf=13.9/128165,128214,crf=13.9/128404,128877,crf=13.9/129290,129336,crf=13.9/129727,129818,crf=13.9/130130,130259,crf=13.9/130547,130575,crf=13.9/130759,130795,crf=13.9/130870,130922,crf=13.9/131396,131449,crf=13.9/131561,131737,crf=13.9/132179,132224,crf=13.9/133478,133523,crf=13.9/134639,134716,crf=13.9/136106,136159,crf=13.9/139137,139225,crf=13.9/141610,141737,crf=13.9/146152,146453,crf=13.9/146750,146834,crf=13.9/150938,150986,crf=13.9/151928,152023,crf=13.9/159600,159778,crf=13.9/160269,160826,crf=13.9
Language                                 : English
Default                                  : Yes
Forced                                   : No
Audio #1
ID                                       : 2
Format                                   : AC-3
Format/Info                              : Audio Coding 3
Mode extension                           : CM (complete main)
Codec ID                                 : A_AC3
Duration                                 : 1h 52mn
Bit rate mode                            : Constant
Bit rate                                 : 640 Kbps
Channel(s)                               : 6 channels
Channel positions                        : Front: L C R, Side: L R, LFE
Sampling rate                            : 48.0 KHz
Bit depth                                : 16 bits
Compression mode                         : Lossy
Stream size                              : 513 MiB (3%)
Title                                    : AC3 5.1 @ 640 kbps - DUB, Blu-ray CEE
Language                                 : Russian
Default                                  : Yes
Forced                                   : No
Audio #2
ID                                       : 3
Format                                   : DTS
Format/Info                              : Digital Theater Systems
Format profile                           : ES
Codec ID                                 : A_DTS
Duration                                 : 1h 52mn
Bit rate mode                            : Constant
Bit rate                                 : 755 Kbps
Channel(s)                               : 6 channels
Channel positions                        : Front: L C R, Side: L R, LFE
Sampling rate                            : 48.0 KHz
Bit depth                                : 24 bits
Compression mode                         : Lossy
Stream size                              : 605 MiB (4%)
Title                                    : DTS 5.1 @ 768 kbps - AVO, A.Gavrilov
Language                                 : Russian
Default                                  : No
Forced                                   : No
Audio #3
ID                                       : 4
Format                                   : DTS
Format/Info                              : Digital Theater Systems
Codec ID                                 : A_DTS
Duration                                 : 1h 52mn
Bit rate mode                            : Constant
Bit rate                                 : 1 510 Kbps
Channel(s)                               : 6 channels
Channel positions                        : Front: L C R, Side: L R, LFE
Sampling rate                            : 48.0 KHz
Bit depth                                : 24 bits
Compression mode                         : Lossy
Delay relative to video                  : 11ms
Stream size                              : 1.18 GiB (8%)
Title                                    : DTS 5.1 @ 1536 kbps
Language                                 : English
Default                                  : No
Forced                                   : No
Audio #4
ID                                       : 5
Format                                   : AC-3
Format/Info                              : Audio Coding 3
Mode extension                           : CM (complete main)
Codec ID                                 : A_AC3
Duration                                 : 1h 52mn
Bit rate mode                            : Constant
Bit rate                                 : 192 Kbps
Channel(s)                               : 2 channels
Channel positions                        : Front: L R
Sampling rate                            : 48.0 KHz
Bit depth                                : 16 bits
Compression mode                         : Lossy
Stream size                              : 154 MiB (1%)
Title                                    : AC3 2.0 @ 192 kbps - Commentary with Director Alan Taylor, Director of Photography Kramer Morgenthau, Producer Kevin Feige & Actor Tom Hiddleston
Language                                 : English
Default                                  : No
Forced                                   : No
Text #1
ID                                       : 6
Format                                   : UTF-8
Codec ID                                 : S_TEXT/UTF8
Codec ID/Info                            : UTF-8 Plain Text
Title                                    : Forced, iTunes
Language                                 : Russian
Default                                  : Yes
Forced                                   : No
Text #2
ID                                       : 7
Format                                   : UTF-8
Codec ID                                 : S_TEXT/UTF8
Codec ID/Info                            : UTF-8 Plain Text
Title                                    : iTunes
Language                                 : Russian
Default                                  : No
Forced                                   : No
Text #3
ID                                       : 8
Format                                   : UTF-8
Codec ID                                 : S_TEXT/UTF8
Codec ID/Info                            : UTF-8 Plain Text
Title                                    : Forced, iTunes
Language                                 : English
Default                                  : No
Forced                                   : No
Text #4
ID                                       : 9
Format                                   : UTF-8
Codec ID                                 : S_TEXT/UTF8
Codec ID/Info                            : UTF-8 Plain Text
Language                                 : English
Default                                  : No
Forced                                   : No
Text #5
ID                                       : 10
Format                                   : UTF-8
Codec ID                                 : S_TEXT/UTF8
Codec ID/Info                            : UTF-8 Plain Text
Title                                    : SDH
Language                                 : English
Default                                  : No
Forced                                   : No
Text #6
ID                                       : 11
Format                                   : UTF-8
Codec ID                                 : S_TEXT/UTF8
Codec ID/Info                            : UTF-8 Plain Text
Title                                    : SDH-COLORED
Language                                 : English
Default                                  : No
Forced                                   : No
Text #7
ID                                       : 12
Format                                   : UTF-8
Codec ID                                 : S_TEXT/UTF8
Codec ID/Info                            : UTF-8 Plain Text
Title                                    : Commentary
Language                                 : English
Default                                  : No
Forced                                   : No
Text #8
ID                                       : 13
Format                                   : UTF-8
Codec ID                                 : S_TEXT/UTF8
Codec ID/Info                            : UTF-8 Plain Text
Title                                    : Commentary SDH
Language                                 : English
Default                                  : No
Forced                                   : No
Menu
00:00:00.000                             : en:Prologue
00:06:13.664                             : en:The Nine Realms at Peace
00:13:05.534                             : en:Strange Happenings in London
00:18:40.994                             : en:The Aether Awakens
00:24:56.495                             : en:Welcome to Asgard
00:29:07.662                             : en:The Last of the Kursed
00:41:33.365                             : en:Attack on Asgard
00:49:40.227                             : en:We are not Immortal
00:55:56.144                             : en:Desperate Times
01:00:08.896                             : en:Escape from Asgard
01:08:12.671                             : en:Brothers in Arms
01:12:39.897                             : en:Return to the Dark World
01:21:34.472                             : en:Follow the Signs
01:26:22.093                             : en:Thor Vs. Malekith Vs. The Convergence
01:33:58.799                             : en:The Aether Unleashed
01:38:31.655                             : en:Born to be a King
01:41:49.394                             : en:End Credits
Скриншоты
Скачать

Скачать торрент!

Как скачивать? · Что такое торрент? · Рейтинг и ограничения

Сайт не распространяет и не хранит электронные версии произведений, а лишь предоставляет доступ к создаваемому пользователями каталогу ссылок на торрент-файлы, которые содержат только списки хеш-сумм

[Профиль] [ЛС]
Показать сообщения:    
Ответить на тему

Текущее время: Сегодня 16:33

Часовой пояс: GMT + 4



Вы не можете начинать темы
Вы не можете отвечать на сообщения
Вы не можете редактировать свои сообщения
Вы не можете удалять свои сообщения
Вы не можете голосовать в опросах
Вы не можете прикреплять файлы к сообщениям
Вы не можете скачивать файлы