Индеец в шкафу / The Indian in the Cupboard (Фрэнк Оз / Frank Oz) [1995, США, фэнтези, приключения, семейный, BDRemux 1080p] MVO + Sub Eng + Original Eng

Ответить на тему
 
Автор Сообщение

user ®

Стаж: 7 лет 7 месяцев

Сообщений: 20008

Пост Пост: #1 от 09-Окт-2015 15:45

[Цитировать]

Индеец в шкафу / The Indian in the Cupboard
Страна: США
Студия: Columbia Pictures Corporation, Paramount Pictures
Жанр: фэнтези, приключения, семейный
Год выпуска: 1995
Продолжительность: 01:36:10
Перевод: Профессиональный (многоголосый закадровый)
Cубтитры: английские
Оригинальная аудиодорожка: английский
Режиссер: Фрэнк Оз / Frank Oz
В ролях: Хэл Скардино, Лайтфут, Линдси Краус, Ричард Дженкинс, Риши Бхат, Стив Куган, Дэвид Кит, Сакина Джэффри, Винсент Картайзер, Нестор Серрано
Описание: Малыш Омри в день своего девятилетия получил много прекрасных подарков, два из которых, на первый взгляд, не представляли особой ценности - маленький пластиковый индеец и старый шкафчик. Но именно эти неприметные "дары" сулят юному герою много неожиданностей и сюрпризов.
Этот фильм, как и другие работы Оза, легко смотрится, достаточно весел и достаточно серьёзен. Детско-семейная картина затрагивает совсем не детские проблемы. Шкафчик, способный оживлять помещаемые в него игрушки, оказывается предметом не белой, а скорее чёрной магии. Индеец, а за ним ковбой, выдёргиваются из истории, из своей реальной жизни, и хозяин шкафа предстаёт для них в виде демона, властелина вселенной. Его попытки помочь оборачиваются неудачами, и малец начинает задумываться над тем, что такое живая душа, свободная личность? Справится ли он с функцией бога для этих людей? Всё больше игрушек оживляется и всё тяжелее вырваться из порочного круга…
Доп. информация: За русскую дорожку спасибо ilya_l.

Sample
Тип релиза: BDRemux 1080p
Контейнер: MKV
Видео: MPEG4 AVC Video, H264, 16:9, 1920x1080, 23.976 fps, 26885 Kbps
Аудио: Russian (AC3, 2 ch, 192 kbps, 16 bits, 48.0 KHz) - MVO
Аудио 2: English (DTS-HD MA, 6 ch, 3609 kbps, 24 bits, 48.0 KHz / DTS core: 6 ch, 1509 kbps, 24 bits, 48.0 KHz) - оригинал
Аудио 3: English (AC3, 2 ch, 192 kbps, 16 bits, 48.0 KHz) - комментарии
Формат субтитров: softsub (SRT)

MediaInfo
General
Unique ID : 217072917775528714535407073061173180882 (0xA34EB926A55ADA0987D13C123D17B9D2)
Complete name : E:\The Indian in The Cupboard 1995 BDRemux 1080p.mkv
Format : Matroska
Format version : Version 4 / Version 2
File size : 20.7 GiB
Duration : 1h 36mn
Overall bit rate mode : Variable
Overall bit rate : 30.9 Mbps
Encoded date : UTC 2015-10-07 23:22:35
Writing application : mkvmerge v6.1.0 ('Old Devil') built on Mar 2 2013 14:32:37
Writing library : libebml v1.3.0 + libmatroska v1.4.0
Video
ID : 1
Format : AVC
Format/Info : Advanced Video Codec
Format profile : High@L4.1
Format settings, CABAC : Yes
Format settings, ReFrames : 2 frames
Codec ID : V_MPEG4/ISO/AVC
Duration : 1h 36mn
Bit rate mode : Variable
Width : 1 920 pixels
Height : 1 080 pixels
Display aspect ratio : 16:9
Frame rate mode : Constant
Frame rate : 23.976 fps
Color space : YUV
Chroma subsampling : 4:2:0
Bit depth : 8 bits
Scan type : Progressive
Default : Yes
Forced : No
Audio #1
ID : 2
Format : AC-3
Format/Info : Audio Coding 3
Mode extension : CM (complete main)
Format settings, Endianness : Big
Codec ID : A_AC3
Duration : 1h 36mn
Bit rate mode : Constant
Bit rate : 192 Kbps
Channel count : 2 channels
Channel positions : Front: L R
Sampling rate : 48.0 KHz
Bit depth : 16 bits
Compression mode : Lossy
Stream size : 132 MiB (1%)
Language : Russian
Default : Yes
Forced : No
Audio #2
ID : 3
Format : DTS
Format/Info : Digital Theater Systems
Format profile : MA / Core
Mode : 16
Format settings, Endianness : Big
Codec ID : A_DTS
Duration : 1h 36mn
Bit rate mode : Variable
Bit rate : Unknown / 1 509 Kbps
Channel count : 6 channels
Channel positions : Front: L C R, Side: L R, LFE
Sampling rate : 48.0 KHz
Bit depth : 24 bits
Compression mode : Lossless / Lossy
Language : English
Default : No
Forced : No
Audio #3
ID : 4
Format : AC-3
Format/Info : Audio Coding 3
Format profile : Dolby Digital
Mode extension : CM (complete main)
Format settings, Endianness : Big
Codec ID : A_AC3
Duration : 1h 36mn
Bit rate mode : Constant
Bit rate : 192 Kbps
Channel count : 2 channels
Channel positions : Front: L R
Sampling rate : 48.0 KHz
Bit depth : 16 bits
Compression mode : Lossy
Stream size : 132 MiB (1%)
Title : комментарии
Language : English
Default : No
Forced : No
Text
ID : 5
Format : UTF-8
Codec ID : S_TEXT/UTF8
Codec ID/Info : UTF-8 Plain Text
Language : English
Default : No
Forced : No
Скриншоты
Скачать

Скачать торрент!

Как скачивать? · Что такое торрент? · Рейтинг и ограничения

Сайт не распространяет и не хранит электронные версии произведений, а лишь предоставляет доступ к создаваемому пользователями каталогу ссылок на торрент-файлы, которые содержат только списки хеш-сумм

[Профиль] [ЛС]
Показать сообщения:    
Ответить на тему

Текущее время: Сегодня 13:42

Часовой пояс: GMT + 4



Вы не можете начинать темы
Вы не можете отвечать на сообщения
Вы не можете редактировать свои сообщения
Вы не можете удалять свои сообщения
Вы не можете голосовать в опросах
Вы не можете прикреплять файлы к сообщениям
Вы не можете скачивать файлы