Возвращение домой / Coming Home / Gui lai (Чжан Имоу / Zhang Yimou) [2014, Китай, драма, WEB-DL 1080p] VO (Алексей Лыдин) + Sub Eng, Chi + Original Chi

Ответить на тему
 
Автор Сообщение

user ®

Стаж: 13 лет

Сообщений: 15071

Пост Пост: #1 от 09-Окт-2015 00:15

[Цитировать]

ВОЗВРАЩЕНИЕ ДОМОЙ / COMING HOME / 歸來-- Страна: Китай |
Жанр: Драма
Производство: Le Vision Pictures, Ltd.
Год выпуска: 2014
Продолжительность: 01:49:23
Перевод: Одноголосый закадровый Алексей Лыдин
Cубтитры: китайские и английские
Оригинальная аудиодорожка: китайский (мандарин)
Режиссёр: [url=http://***/forum/viewtopic.php?t=4148778]Чжан Имоу / Zhang Yimou[/url]
В ролях: Чень Дао-Мин, Гун Ли, Чжан Хуэй-Вэнь, Чжан Цзя-Йи, Чень Сяо-Йи, Дин Цзя-Ли, Цзу Фэн, Лю Пэй-Ци, Янь Ни, Синь Бай-Цин, Гуо Тао, Ван Чжи-Фэй-Описание: Пара - Лю и Фэн была разлучена, когда Лю арестовали и отправили в трудовой лагерь, как политического заключённого, во время "Культурной революции". Когда он вернулся домой, то обнаружил, что его любимая жена уже не помнит его.-Доп. информация: Фильм переведён по заказу релиз-группы -Сэмпл: https://yadi.sk/i/gKrIPq5OjZQuL
Качество видео: WEB-DL 1080p
Формат видео: MKV
Видео: AVC / 1920x804 / 16:9 / 24,000 fps / 4835 Kbps / High@L4.1
Аудио 1: Russian, AC3, 48 kHz, 2ch, 192 kbps | Alexey Lydin
Аудио 2: Chinese, AC3, 48 kHz, 2ch, 192 kbps | Original (Mandarin)
Формат субтитров: hardsub (неотключаемые)
MediaInfo
Общее
Уникальный идентификатор : 214997444568784385124901246747104154916 (0xA1BF006BE23EAE3F86A3FB35EB2E9524)
Полное имя : Coming Home (2014).mkv
Формат : Matroska
Версия формата : Version 1
Размер файла : 3,98 Гбайт
Продолжительность : 1 ч. 49 м.
Общий поток : 5213 Кбит/сек
Дата кодирования : UTC 2015-10-06 17:31:06
Программа кодирования : mkvmerge v2.1.0 ('Another Place To Fall') built on Aug 19 2007 13:40:07
Библиотека кодирования : libebml v0.7.7 + libmatroska v0.8.1
Видео
Идентификатор : 1
Формат : AVC
Формат/Информация : Advanced Video Codec
Профиль формата : High@L4.1
Параметр CABAC формата : Да
Параметр ReFrames формата : 4 кадра
Идентификатор кодека : V_MPEG4/ISO/AVC
Продолжительность : 1 ч. 49 м.
Битрейт : 4835 Кбит/сек
Ширина : 1920 пикселей
Высота : 804 пикселя
Соотношение сторон : 2,40:1
Режим частоты кадров : Постоянный
Частота кадров : 24,000 кадра/сек
Цветовое пространство : YUV
Субдискретизация насыщенности : 4:2:0
Битовая глубина : 8 бит
Тип развёртки : Прогрессивная
Бит/(Пиксели*Кадры) : 0.131
Размер потока : 3,61 Гбайт (91%)
Библиотека кодирования : x264 core 142 r2431+42 c69a006 tMod [8-bit@all X86_64]
Настройки программы : cabac=1 / ref=4 / deblock=1:-3:-3 / analyse=0x3:0x133 / me=umh / subme=7 / psy=1 / fade_compensate=0.00 / psy_rd=1.10:0.10 / mixed_ref=1 / me_range=32 / chroma_me=1 / trellis=1 / 8x8dct=1 / cqm=0 / deadzone=21,11 / fast_pskip=0 / chroma_qp_offset=-3 / threads=18 / lookahead_threads=4 / sliced_threads=0 / nr=0 / decimate=0 / interlaced=0 / bluray_compat=0 / constrained_intra=0 / fgo=0 / bframes=6 / b_pyramid=2 / b_adapt=2 / b_bias=0 / direct=3 / weightb=1 / open_gop=0 / weightp=2 / keyint=240 / keyint_min=24 / scenecut=40 / intra_refresh=0 / rc_lookahead=120 / rc=abr / mbtree=1 / bitrate=4835 / ratetol=1.0 / qcomp=0.70 / qpmin=0:0:0 / qpmax=69:69:69 / qpstep=4 / ip_ratio=1.10 / aq=1:0.90 / aq-sensitivity=10.00 / aq-factor=1.00:1.00:1.00 / aq2=0 / aq3=0
Default : Да
Forced : Нет
Аудио #1
Идентификатор : 2
Формат : AC-3
Формат/Информация : Audio Coding 3
Расширение режима : CM (complete main)
Параметр Endianness формата : Big
Идентификатор кодека : A_AC3
Продолжительность : 1 ч. 49 м.
Вид битрейта : Постоянный
Битрейт : 192 Кбит/сек
Каналы : 2 канала
Расположение каналов : Front: L R
Частота : 48,0 КГц
Битовая глубина : 16 бит
Метод сжатия : С потерями
Размер потока : 150 Мбайт (4%)
Заголовок : Alexey Lydin
Язык : Russian
Default : Да
Forced : Нет
Аудио #2
Идентификатор : 3
Формат : AC-3
Формат/Информация : Audio Coding 3
Расширение режима : CM (complete main)
Параметр Endianness формата : Big
Идентификатор кодека : A_AC3
Продолжительность : 1 ч. 49 м.
Вид битрейта : Постоянный
Битрейт : 192 Кбит/сек
Каналы : 2 канала
Расположение каналов : Front: L R
Частота : 48,0 КГц
Битовая глубина : 16 бит
Метод сжатия : С потерями
Размер потока : 150 Мбайт (4%)
Заголовок : Mandarin
Язык : Chinese
Default : Нет
Forced : Нет
Меню
00:00:00.054 : en:00:00:00.054
Скриншот c названием фильма Скриншоты Постеры Награды
Golden Horse Film Festival 2014
Лучший адаптированный сценарий (Цзоу Цзин-Ци, Янь Гелин)
Лучшая женская роль (Гун Ли)
Лучшая новая актриса (Чжан Хуэй-Вэнь)
Лучшая музыка (Чень Ци-Ган)

Asian Film Award 2015
Лучшая женская роль (Гун Ли)
Лучшая новая актриса (Чжан Хуэй-Вэнь)

Golden Rooster 2015
Лучший адаптированный сценарий (Янь Гелин, Цзоу Цзин-Ци)
Лучшая женская роль второго плана (Чжан Хуэй-Вэнь)
Скачать

Скачать торрент! Возвращение домой / Coming Home / Gui lai (Чжан Имоу / Zhang Yimou) [2014, Китай, драма, WEB-DL 1080p] VO (Алексей Лыдин) + Sub Eng, Chi + Original Chi

Как скачивать? · Что такое торрент? · Рейтинг и ограничения

Сайт не распространяет и не хранит электронные версии произведений, а лишь предоставляет доступ к создаваемому пользователями каталогу ссылок на торрент-файлы, которые содержат только списки хеш-сумм

[Профиль] [ЛС]
Показать сообщения:    
Ответить на тему

Текущее время: Сегодня 17:19

Часовой пояс: GMT + 4



Вы не можете начинать темы
Вы не можете отвечать на сообщения
Вы не можете редактировать свои сообщения
Вы не можете удалять свои сообщения
Вы не можете голосовать в опросах
Вы не можете прикреплять файлы к сообщениям
Вы не можете скачивать файлы