Виновный / Guilty (Джилл Вонг / Jill Wong) [2014, Гонконг, драма, мелодрама, триллер, криминал, HDRip] VO (datynet)

Ответить на тему
 
Автор Сообщение

user ®

Стаж: 13 лет

Сообщений: 15071

Пост Пост: #1 от 09-Окт-2015 00:15

[Цитировать]

Виновный / Guilty
Страна: Гонконг
Жанр: драма, мелодрама, триллер, криминал
Год выпуска: 2014
Продолжительность: 01:42:07
Перевод: Одноголосый (закадровый) [datynet]
Оригинальная аудиодорожка: нет
Cубтитры:нет
Режиссер: Джилл Вонг / Jill Wong
В ролях: Лидди Ли, Кай Чи Лю, Пак-хо Чау
Описание:Киллер Джек медленно бродил в районе красных фонарей. Когда он ходил по аллее, все боялись смотреть на него из-за его чрезвычайно уродливого лица. Тин Тин была всего лишь проституткой, которая не отвергала его. Джек находит шрам на животе Тин Тин, который был следом от выстрела. Тин Тин, с другой стороны смотрит на ужасное лицо Джека, не показывая никаких признаков страха. Они быстро сближаются и Джек не может оставить в покое Тин Тин. Он решает любой ценой вырвать девушку из ее несчастной жизни…

Релиз:

Качество: HDRip
Контейнер: AVI
Видео: 688x288 (2.39:1), 24 fps, XviD build 64 ~872 kbps avg, 0.18 bit/pixel
Аудио: 48 kHz, MPEG Layer 3, 2 ch, ~128.00 kbps avg

MI
Общее
Полное имя : D:\Мои рипы\Виновный.2015.HDRip.Некул.avi
Формат : AVI
Формат/Информация : Audio Video Interleave
Размер файла : 743 Мбайт
Продолжительность : 1 ч. 42 м.
Общий поток : 1014 Кбит/сек
Название фильма : Guilty [2015] [720p] VO
Программа кодирования : Lavf56.25.101
Видео
Идентификатор : 0
Формат : MPEG-4 Visual
Профиль формата : Advanced Simple@L5
Параметр BVOP формата : 1
Параметр QPel формата : Нет
Параметр GMC формата : Без точки перехода
Параметр матрицы формата : Default (H.263)
Идентификатор кодека : XVID
Идентификатор кодека/Подсказка : XviD
Продолжительность : 1 ч. 42 м.
Битрейт : 873 Кбит/сек
Ширина : 688 пикселей
Высота : 288 пикселей
Соотношение сторон : 2,40:1
Частота кадров : 24,000 кадра/сек
Цветовое пространство : YUV
Субдискретизация насыщенности : 4:2:0
Битовая глубина : 8 бит
Тип развёртки : Прогрессивная
Метод сжатия : С потерями
Бит/(Пиксели*Кадры) : 0.184
Размер потока : 639 Мбайт (86%)
Заголовок : profile.php?mode=viewprofile&u=22488948 || RG Orient Extreme Films
Библиотека кодирования : XviD 64
Аудио
Идентификатор : 1
Формат : MPEG Audio
Версия формата : Version 1
Профиль формата : Layer 3
Режим : Joint stereo
Расширение режима : MS Stereo
Идентификатор кодека : 55
Идентификатор кодека/Подсказка : MP3
Продолжительность : 1 ч. 42 м.
Вид битрейта : Постоянный
Битрейт : 128 Кбит/сек
Каналы : 2 канала
Частота : 48,0 КГц
Метод сжатия : С потерями
Размер потока : 93,8 Мбайт (13%)
Выравнивание : Соединение по промежуткам
Продолжительность промежутка : 24 мс. (0,58 видеокадр)
Заголовок : VO [datynet]
Скриншоты
Скачать

Скачать торрент! Виновный / Guilty (Джилл Вонг / Jill Wong) [2014, Гонконг, драма, мелодрама, триллер, криминал, HDRip] VO (datynet)

Как скачивать? · Что такое торрент? · Рейтинг и ограничения

Сайт не распространяет и не хранит электронные версии произведений, а лишь предоставляет доступ к создаваемому пользователями каталогу ссылок на торрент-файлы, которые содержат только списки хеш-сумм

[Профиль] [ЛС]
Показать сообщения:    
Ответить на тему

Текущее время: Сегодня 22:21

Часовой пояс: GMT + 4



Вы не можете начинать темы
Вы не можете отвечать на сообщения
Вы не можете редактировать свои сообщения
Вы не можете удалять свои сообщения
Вы не можете голосовать в опросах
Вы не можете прикреплять файлы к сообщениям
Вы не можете скачивать файлы