Кунг-фу геккона / Gecko Kung Fu / Bi hu you long (Вонг Хо / Wong Ho) [1972, Тайвань, Боевые искусства, VHSRip] VO (Виктор Береговых)

Ответить на тему
 
Автор Сообщение

user ®

Стаж: 13 лет

Сообщений: 15071

Пост Пост: #1 от 09-Окт-2015 00:15

[Цитировать]

Кунг-фу геккона / Gecko Kung Fu / Bi hu you long
Страна: Тайвань
Жанр: Боевые искусства
Год выпуска: 1972
Продолжительность: 01:39:57
Перевод: Одноголосый закадровый Виктор Береговых
Cубтитры: нет
Оригинальная аудиодорожка: нет
Режиссер: Вонг Хо / Wong Ho
В ролях: Брюс Лай, Хонг Хой, Суэн Га-Лам, Сит Хон, Мяо Тян, Окада Кавай
Описание: Ли Чун Фэй и Ичиру, побратимы и ученики одного и того же мастера кунг-фу. Они изучают редкий стиль - кунг-фу Геккона. Ичиру - японец и не смотря на это мастер взял его к себе в ученики, к тому же Ичиру гораздо способнее Ли Чун Фэя. Спустя годы, во время японской оккупации побратимы становятся заклятыми врагами…
Сэмпл: http://multi-up.com/1069793
Качество видео: VHSRip
Формат видео: AVI
Видео: 592x464 (1.28:1), 23.976 fps, XviD MPEG-4 ~1880 kbps avg, 0.28 bit/pixel
Аудио: 48 kHz, AC3 Dolby Digital, 2/0 (L,R) ch, ~192 kbps
MediaInfo
General
Complete name : D:\Desktop\Gecko Kung Fu.avi
Format : AVI
Format/Info : Audio Video Interleave
File size : 1.45 GiB
Duration : 1h 39mn
Overall bit rate : 2 078 Kbps
Writing application : VirtualDubMod 1.5.10.3 (build 2550/release)
Writing library : VirtualDubMod build 2550/release
Video
ID : 0
Format : MPEG-4 Visual
Format profile : Advanced Simple@L5
Format settings, BVOP : Yes
Format settings, QPel : No
Format settings, GMC : No warppoints
Format settings, Matrix : Default (H.263)
Codec ID : XVID
Codec ID/Hint : XviD
Duration : 1h 39mn
Bit rate : 1 880 Kbps
Width : 592 pixels
Height : 464 pixels
Display aspect ratio : 3:2
Original display aspect ratio : 1.276
Frame rate : 23.976 fps
Color space : YUV
Chroma subsampling : 4:2:0
Bit depth : 8 bits
Scan type : Progressive
Compression mode : Lossy
Bits/(Pixel*Frame) : 0.286
Stream size : 1.31 GiB (90%)
Writing library : XviD 64
Audio
ID : 1
Format : AC-3
Format/Info : Audio Coding 3
Mode extension : CM (complete main)
Format settings, Endianness : Big
Codec ID : 2000
Duration : 1h 39mn
Bit rate mode : Constant
Bit rate : 192 Kbps
Channel count : 2 channels
Channel positions : Front: L R
Sampling rate : 48.0 KHz
Bit depth : 16 bits
Compression mode : Lossy
Stream size : 137 MiB (9%)
Alignment : Aligned on interleaves
Interleave, duration : 160 ms (3.84 video frames)
Interleave, preload duration : 640 ms
Скриншот c названием фильма Скриншоты
Скачать

Скачать торрент! Кунг-фу геккона / Gecko Kung Fu / Bi hu you long (Вонг Хо / Wong Ho) [1972, Тайвань, Боевые искусства, VHSRip] VO (Виктор Береговых)

Как скачивать? · Что такое торрент? · Рейтинг и ограничения

Сайт не распространяет и не хранит электронные версии произведений, а лишь предоставляет доступ к создаваемому пользователями каталогу ссылок на торрент-файлы, которые содержат только списки хеш-сумм

[Профиль] [ЛС]
Показать сообщения:    
Ответить на тему

Текущее время: Сегодня 11:22

Часовой пояс: GMT + 4



Вы не можете начинать темы
Вы не можете отвечать на сообщения
Вы не можете редактировать свои сообщения
Вы не можете удалять свои сообщения
Вы не можете голосовать в опросах
Вы не можете прикреплять файлы к сообщениям
Вы не можете скачивать файлы