В следующий раз я буду стрелять в сердце / La prochaine fois je viserai le coeur (Седрик Анже / Cédric Anger) [2014, Франция, триллер, драма, криминал, BDRip 720p] MVO + Sub Fre + Original Fre

Ответить на тему
 
Автор Сообщение

user ®

Стаж: 7 лет 7 месяцев

Сообщений: 20008

Пост Пост: #1 от 09-Окт-2015 00:15

[Цитировать]

В следующий раз я буду стрелять в сердце / La prochaine fois je viserai le coeur
Страна: Франция
Студия: Angoa-Agicoa, Canal+ [fr], Caneo Films, Centre National de la Cinematographie (CNC), Cine, Kinology
Жанр: триллер, драма, криминал
Год выпуска: 2014
Продолжительность: 01:51:18
Перевод: Профессиональный (многоголосый закадровый)
Cубтитры: французские
Оригинальная аудиодорожка: французский
Режиссер: Седрик Анже / Cédric Anger
В ролях: Гийом Кане, Ана Жирардо, Жан-Ив Бертело, Патрик Азам, Арно Анриет, Дуглас Аттал, Pierick Tournier, Александр Карьер, Francois-Dominique Blin, Фрэнк Андриё
Описание: На протяжении нескольких месяцев, между 1978 и 1979 годами, жители Уазы постоянно испытывают тревогу и страх: на улицах свирепствует жестокий маньяк, мишенью которого являются молодые женщины. Вторгаясь в человеческие судьбы за рулем своего авто, преступник ранит и убивает выбранных наугад людей, голосующих на дороге.
Словно находясь везде и нигде одновременно, он с легкостью ускользает от ловушек правосудия, избегая любые возможные преграды. Что и неудивительно, ведь в действительности он — молодой и робкий жандарм, ведущий в глазах коллектива скучную и монотонную жизнь. И как образцовый жандарм, он с удовольствием расследует свои собственные преступления…

Тип релиза: BDRip 720p
Контейнер: MKV
Видео: MPEG-4 AVC, 7138 Кбит/с, 1280x534, 24.000 fps
Аудио: Rus, AC3, 384 kb/s (6 ch), 48 kHz
Аудио 2: Fre, AC3, 640 kb/s (6 ch), 48 kHz
Формат субтитров: softsub (SRT)
MediaInfo
x264 [info]: frame I:999 Avg QP:15.02 size: 85809
x264 [info]: frame P:30183 Avg QP:16.17 size: 54524
x264 [info]: frame B:129093 Avg QP:17.51 size: 33806
Format : Matroska
Format version : Version 4 / Version 2
File size : 6.47 GiB
Duration : 1h 51mn
Overall bit rate : 8 328 Kbps
Movie name : В следующий раз я буду стрелять в сердце. (Tonik)
Encoded date : UTC 2015-10-05 17:39:43
Writing application : mkvmerge v7.1.0 ('Good Love') 64bit built on Jul 27 2014 13:06:55
Writing library : libebml v1.3.0 + libmatroska v1.4.1
_STATISTICS_WRITING_APP : mkvmerge v7.1.0 ('Good Love') 64bit built on Jul 27 2014 13:06:55
_STATISTICS_WRITING_DATE_UTC : 2015-10-05 17:39:43
_STATISTICS_TAGS : BPS DURATION NUMBER_OF_FRAMES NUMBER_OF_BYTES
DURATION : 01:51:17.184000000
NUMBER_OF_FRAMES : 208662
NUMBER_OF_BYTES : 320504832
Video
ID : 1
Format : AVC
Format/Info : Advanced Video Codec
Format profile : High@L4.1
Format settings, CABAC : Yes
Format settings, ReFrames : 12 frames
Codec ID : V_MPEG4/ISO/AVC
Duration : 1h 51mn
Bit rate : 7 138 Kbps
Width : 1 280 pixels
Height : 534 pixels
Display aspect ratio : 2.40:1
Original display aspect ratio : 2.40:1
Frame rate mode : Constant
Frame rate : 24.000 fps
Color space : YUV
Chroma subsampling : 4:2:0
Bit depth : 8 bits
Scan type : Progressive
Bits/(Pixel*Frame) : 0.435
Stream size : 5.55 GiB (86%)
Writing library : x264 core 146 r0+2584 6cf85c6 t_mod_Custom [8-bit@all ]
Encoding settings : cabac=1 / ref=12 / deblock=1:-3:-3 / analyse=0x3:0x133 / me=umh / subme=10 / psy=1 / fade_compensate=0.00 / psy_rd=1.00:0.00 / mixed_ref=1 / me_range=24 / chroma_me=1 / trellis=2 / 8x8dct=1 / cqm=0 / deadzone=21,11 / fast_pskip=0 / chroma_qp_offset=-2 / threads=12 / lookahead_threads=2 / sliced_threads=0 / nr=0 / decimate=0 / interlaced=0 / bluray_compat=0 / constrained_intra=0 / fgo=0 / bframes=7 / b_pyramid=2 / b_adapt=2 / b_bias=0 / direct=3 / weightb=1 / open_gop=0 / weightp=2 / keyint=250 / keyint_min=24 / scenecut=40 / intra_refresh=0 / rc_lookahead=60 / rc=crf / mbtree=0 / crf=17.3000 / qcomp=0.65 / qpmin=0:0:0 / qpmax=69:69:69 / qpstep=4 / vbv_maxrate=62500 / vbv_bufsize=78125 / crf_max=0.0 / nal_hrd=none / filler=0 / ip_ratio=1.30 / pb_ratio=1.20 / aq=3:0.70 / aq-sensitivity=10.00 / aq-factor=1.00:1.00:1.00 / aq2=0 / aq3=0
Language : English
Default : Yes
Forced : No
Matrix coefficients : BT.709
_STATISTICS_WRITING_APP : mkvmerge v7.1.0 ('Good Love') 64bit built on Jul 27 2014 13:06:55
_STATISTICS_WRITING_DATE_UTC : 2015-10-05 17:39:43
_STATISTICS_TAGS : BPS DURATION NUMBER_OF_FRAMES NUMBER_OF_BYTES
DURATION : 01:51:18.125000000
NUMBER_OF_FRAMES : 160275
NUMBER_OF_BYTES : 6095518798
Audio #1
ID : 2
Format : AC-3
Format/Info : Audio Coding 3
Mode extension : CM (complete main)
Format settings, Endianness : Big
Codec ID : A_AC3
Duration : 1h 51mn
Bit rate mode : Constant
Bit rate : 384 Kbps
Channel(s) : 6 channels
Channel positions : Front: L C R, Side: L R, LFE
Sampling rate : 48.0 KHz
Bit depth : 16 bits
Compression mode : Lossy
Stream size : 306 MiB (5%)
Language : Russian
Default : Yes
Forced : No
Audio #2
ID : 3
Format : AC-3
Format/Info : Audio Coding 3
Mode extension : CM (complete main)
Format settings, Endianness : Big
Codec ID : A_AC3
Duration : 1h 51mn
Bit rate mode : Constant
Bit rate : 640 Kbps
Channel(s) : 6 channels
Channel positions : Front: L C R, Side: L R, LFE
Sampling rate : 48.0 KHz
Bit depth : 16 bits
Compression mode : Lossy
Stream size : 510 MiB (8%)
Language : French
Default : No
Forced : No
Text
ID : 4
Format : UTF-8
Codec ID : S_TEXT/UTF8
Codec ID/Info : UTF-8 Plain Text
Language : French
Default : No
Forced : No
Menu
00:00:00.000 : en:00:00:00.000
00:08:43.500 : en:00:08:43.500
00:18:08.292 : en:00:18:08.292
00:27:01.208 : en:00:27:01.208
00:36:55.250 : en:00:36:55.250
00:48:15.750 : en:00:48:15.750
00:57:28.792 : en:00:57:28.792
01:06:22.333 : en:01:06:22.333
01:18:01.917 : en:01:18:01.917
01:27:01.250 : en:01:27:01.250
01:36:06.625 : en:01:36:06.625
01:46:15.583 : en:01:46:15.583
Скриншоты
Скачать

Скачать торрент!

Как скачивать? · Что такое торрент? · Рейтинг и ограничения

Сайт не распространяет и не хранит электронные версии произведений, а лишь предоставляет доступ к создаваемому пользователями каталогу ссылок на торрент-файлы, которые содержат только списки хеш-сумм

[Профиль] [ЛС]
Показать сообщения:    
Ответить на тему

Текущее время: Сегодня 05:55

Часовой пояс: GMT + 4



Вы не можете начинать темы
Вы не можете отвечать на сообщения
Вы не можете редактировать свои сообщения
Вы не можете удалять свои сообщения
Вы не можете голосовать в опросах
Вы не можете прикреплять файлы к сообщениям
Вы не можете скачивать файлы