Сеть 2.0 / The Net 2.0 (Чарльз Уинклер / Charles Winkler) [2006, США, боевик, триллер, драма, WEB-DL 720p] 2x DVO + Sub Eng + Original Eng

Ответить на тему
 
Автор Сообщение

user ®

Стаж: 7 лет 7 месяцев

Сообщений: 20008

Пост Пост: #1 от 08-Окт-2015 14:57

[Цитировать]

Сеть 2.0 / The Net 2.0
Страна: США
Студия: Columbia Pictures Corporation и др.
Жанр: боевик, триллер, драма
Год выпуска: 2006
Продолжительность: 01:32:31
Перевод: Профессиональный (двухголосый закадровый) R5
Перевод 2: Любительский (двухголосый закадровый)
Cубтитры: английские
Оригинальная аудиодорожка: английский
Режиссер: Чарльз Уинклер / Charles Winkler
В ролях: Никки Делоач, Ченгиз Бозкурт, Демет Акбаг, Нил Хопкинс, Кортни Вай, Себнем Дёнмез, Эртан Сабан, Гувен Кирак, Чарльз Уинклер, Сельма Эргеч
Описание: Сюжет ленты разворачивается вокруг девушки Хоуп Кэссиди, переехавшей в Стамбул, чтобы начать карьеру компьютерного аналитика с чистого листа. Но ее личность раскрывается, банк замораживает ее счет и аннулирует кредитные карточки.
С помощью своего друга, оставшегося в Лос-Анджелесе, она пытается убедить власти, обвиняющие ее в убийстве и хищении $14 млн., что кто-то воспользовался ее личностью.


Sample
Тип релиза: WEB-DL 720p
Контейнер: MKV
Видео: MPEG4 AVC Video, H264, 16:9, 1274x720, 23.976 fps, 3927 kbps
Аудио: Russian (AC3, 6 ch, 448 kbps, 16 bits, 48.0 KHz) - DVO R5
Аудио 2: Russian (AC3, 2 ch, 192 kbps, 16 bits, 48.0 KHz) - DVO любит.
Аудио 3: English (AAC, 2 ch, 143 kbps, 16 bits, 48.0 KHz) - оригинал
Формат субтитров: softsub (SRT)

MediaInfo
General
Unique ID : 200490203005938504388526750896069638160 (0x96D502307FD5151E8BA4F9435DE97810)
Complete name : K:\The Net 2.0 2006 WEB-DL 720p.mkv
Format : Matroska
Format version : Version 4 / Version 2
File size : 3.09 GiB
Duration : 1h 32mn
Overall bit rate : 4 777 Kbps
Encoded date : UTC 2015-10-06 18:10:11
Writing application : mkvmerge v6.1.0 ('Old Devil') built on Mar 2 2013 14:32:37
Writing library : libebml v1.3.0 + libmatroska v1.4.0
Video
ID : 1
Format : AVC
Format/Info : Advanced Video Codec
Format profile : High@L3.1
Format settings, CABAC : No
Format settings, ReFrames : 2 frames
Codec ID : V_MPEG4/ISO/AVC
Duration : 1h 32mn
Width : 1 274 pixels
Height : 720 pixels
Display aspect ratio : 16:9
Frame rate mode : Constant
Frame rate : 23.976 fps
Color space : YUV
Chroma subsampling : 4:2:0
Bit depth : 8 bits
Scan type : Progressive
Language : English
Default : Yes
Forced : No
Color primaries : BT.709
Transfer characteristics : BT.709
Matrix coefficients : BT.709
Audio #1
ID : 2
Format : AC-3
Format/Info : Audio Coding 3
Mode extension : CM (complete main)
Format settings, Endianness : Big
Codec ID : A_AC3
Duration : 1h 32mn
Bit rate mode : Constant
Bit rate : 448 Kbps
Channel count : 6 channels
Channel positions : Front: L C R, Side: L R, LFE
Sampling rate : 48.0 KHz
Bit depth : 16 bits
Compression mode : Lossy
Stream size : 297 MiB (9%)
Title : DVO проф.
Language : Russian
Default : Yes
Forced : No
Audio #2
ID : 3
Format : AC-3
Format/Info : Audio Coding 3
Mode extension : CM (complete main)
Format settings, Endianness : Big
Codec ID : A_AC3
Duration : 1h 32mn
Bit rate mode : Constant
Bit rate : 192 Kbps
Channel count : 2 channels
Channel positions : Front: L R
Sampling rate : 48.0 KHz
Bit depth : 16 bits
Compression mode : Lossy
Stream size : 127 MiB (4%)
Title : DVO любит.
Language : Russian
Default : No
Forced : No
Audio #3
ID : 4
Format : AAC
Format/Info : Advanced Audio Codec
Format profile : LC
Codec ID : A_AAC
Duration : 1h 32mn
Channel count : 2 channels
Channel positions : Front: L R
Sampling rate : 48.0 KHz
Compression mode : Lossy
Language : English
Default : No
Forced : No
Text
ID : 5
Format : UTF-8
Codec ID : S_TEXT/UTF8
Codec ID/Info : UTF-8 Plain Text
Language : English
Default : No
Forced : No
Menu
00:00:00.000 : en:Start
00:04:39.000 : en:Return to Consciousness
00:06:08.000 : en:Maximum Security
00:07:38.000 : en:Job Offer
00:10:23.000 : en:Stolen Identity
00:13:53.000 : en:Airport Arrival
00:16:29.000 : en:U.S. Consulate Clerk
00:18:52.000 : en:Meeting Another American
00:22:54.000 : en:Passport Mistake
00:26:35.000 : en:First Security Assignment
00:30:54.000 : en:Ushered Out
00:33:40.000 : en:Imposter Confrontation
00:37:26.000 : en:"What Do You Want?"
00:40:10.000 : en:On the Run
00:44:22.000 : en:Wanted for Murder
00:47:29.000 : en:Breaching Security
00:51:11.000 : en:Probability Search
00:55:08.000 : en:Turkish Friend
00:57:09.000 : en:Fighting Back
01:01:51.000 : en:"?Your Only Hope."
01:03:11.000 : en:Money Transfer
01:04:43.000 : en:Phone Deal
01:06:06.000 : en:Mosque Murder
01:07:45.000 : en:"So, You Believe Me?"
01:09:48.000 : en:"Trust Me."
01:15:48.000 : en:Interpol Intelligence
01:17:11.000 : en:The Setup
01:25:34.000 : en:A New Identity
Скриншоты
Скачать

Скачать торрент!

Как скачивать? · Что такое торрент? · Рейтинг и ограничения

Сайт не распространяет и не хранит электронные версии произведений, а лишь предоставляет доступ к создаваемому пользователями каталогу ссылок на торрент-файлы, которые содержат только списки хеш-сумм

[Профиль] [ЛС]
Показать сообщения:    
Ответить на тему

Текущее время: Сегодня 02:05

Часовой пояс: GMT + 4



Вы не можете начинать темы
Вы не можете отвечать на сообщения
Вы не можете редактировать свои сообщения
Вы не можете удалять свои сообщения
Вы не можете голосовать в опросах
Вы не можете прикреплять файлы к сообщениям
Вы не можете скачивать файлы