История О / Histoire d\'O / Story of O (Жюст Жакен / Just Jaeckin) [1975, Франция, Германия (ФРГ), Канада, эротика, драма, BDRip 720p] MVO + AVO Володарский + Sub Rus, Fre + Original Fre + Eng

Ответить на тему
 
Автор Сообщение

user ®

Стаж: 7 лет 7 месяцев

Сообщений: 20008

Пост Пост: #1 от 08-Окт-2015 14:57

[Цитировать]

История О / Histoire d'O / Story of O
Страна: Франция - ФРГ - Канада
Жанр: Эротика, Драма
Год выпуска: 1975
Продолжительность: 01:44:48
Перевод: Профессиональный (многоголосый закадровый), авторский Леонид Володарский
Cубтитры: русские, французские
Оригинальная аудиодорожка: французский
Режиссер: Жюст Жакен (Just Jaeckin)
В ролях: Корин Клери, Удо Кир, Энтони Стил, Жан Гавен, Кристиана Миназзоли, Мартин Келли, Жан-Пьерр Андреани, Гэбриел Каттан, Ли Зеллгрен, Албан Навизет
Описание: О соглашается поехать вместе со своим возлюбленным Рене в покрытый загадочной тайной замок Руасси. Прибыв в Руасси, она знакомится со строгими правилами замка. Ей завязывают глаза, ее бьют плетьми и вынуждают спать с различными мужчинами в присутствии ее возлюбленного.
В своей любви к Рене, О со спокойным удовольствием и преданностью встречает все неожиданности жизни замка. Мысль о Рене позволяет ей не только выносить все грубости, которыми допекают ее мужчины.
Напротив, О начинает с увлечением находить в этом самоотверженно преданном подчинении определенное освобождение от себя самой. С растущим наслаждением О все более удаляется от привычного ей мира.
Сэмпл: https://yadi.sk/i/McZUeM0KjaqiB
Исходник [url=http://***/forum/viewtopic.php?t=2463750]BDremux[/url]

Тип релиза: BDRip 720p
Контейнер: MKV
Видео: х264, 1280х720, 16:9, 7807 Кбит/сек, 23,976 кадра/сек, 0.353
Аудио: RUS - Dolby Digital AC-3, 2 канала, 640 Кбит/сек, 48,0 КГц (MVO)
Аудио 2: RUS - Dolby Digital AC-3, 2 канала, 192 Кбит/сек, 48,0 КГц (AVO Володарский)
Аудио 3: FRE - Dolby Digital AC-3, 2 канала, 224 Кбит/сек, 48,0 КГц
Аудио 4: ENG - Dolby Digital AC-3, 2 канала, 224 Кбит/сек, 48,0 КГц
Формат субтитров: softsub (SRT)
лог
x264 [info]: frame I:782 Avg QP:15.48 size:123717
x264 [info]: frame P:29311 Avg QP:16.63 size: 80211
x264 [info]: frame B:120587 Avg QP:18.44 size: 31776
x264 [info]: consecutive B-frames: 0.8% 0.7% 3.9% 15.0% 22.3% 48.7% 7.8% 0.4% 0.2% 0.1% 0.1%
x264 [info]: mb I I16..4: 7.1% 83.2% 9.7%
x264 [info]: mb P I16..4: 1.1% 39.5% 1.4% P16..4: 22.4% 22.4% 12.1% 0.0% 0.0% skip: 1.1%
x264 [info]: mb B I16..4: 0.1% 3.9% 0.1% B16..8: 38.9% 19.2% 6.0% direct:12.9% skip:18.9% L0:41.7% L1:39.9% BI:18.4%
x264 [info]: 8x8 transform intra:94.1% inter:56.4%
x264 [info]: coded y,uvDC,uvAC intra: 98.1% 99.1% 96.4% inter: 44.3% 62.1% 42.6%
x264 [info]: i16 v,h,dc,p: 15% 3% 9% 73%
x264 [info]: i8 v,h,dc,ddl,ddr,vr,hd,vl,hu: 10% 8% 13% 9% 12% 12% 11% 12% 13%
x264 [info]: i4 v,h,dc,ddl,ddr,vr,hd,vl,hu: 8% 6% 2% 10% 17% 17% 15% 13% 13%
x264 [info]: i8c dc,h,v,p: 65% 9% 10% 16%
x264 [info]: Weighted P-Frames: Y:14.9% UV:11.8%
x264 [info]: ref P L0: 35.7% 10.5% 22.5% 7.6% 7.8% 4.6% 5.2% 2.6% 3.2% 0.4% 0.0%
x264 [info]: ref B L0: 79.8% 10.0% 3.7% 2.3% 1.5% 1.4% 0.8% 0.5%
x264 [info]: ref B L1: 96.5% 3.5%
x264 [info]: kb/s:7993.53
x264 [total]: encoded 150680 frames, 4.69 fps, 7993.53 kb/s
MediaInfo
Полное имя : K:\История О (Histoire d'O. 1975).mkv
Формат : Matroska
Версия формата : Version 2
Размер файла : 6,79 Гбайт
Продолжительность : 1 ч. 44 м.
Общий поток : 9272 Кбит/сек
Дата кодирования : UTC 2015-10-06 21:14:09
Программа кодирования : mkvmerge v7.9.0 ('Birds') 32bit
Библиотека кодирования : libebml v1.3.1 + libmatroska v1.4.2
Attachements : poster.jpg
Видео
Идентификатор : 1
Формат : AVC
Формат/Информация : Advanced Video Codec
Профиль формата : High@L4.1
Параметр CABAC формата : Да
Параметр ReFrames формата : 9 кадров
Идентификатор кодека : V_MPEG4/ISO/AVC
Продолжительность : 1 ч. 44 м.
Битрейт : 7807 Кбит/сек
Ширина : 1280 пикселей
Высота : 720 пикселей
Соотношение сторон : 16:9
Режим частоты кадров : Постоянный
Частота кадров : 23,976 кадра/сек
Цветовое пространство : YUV
Субдискретизация насыщенности : 4:2:0
Битовая глубина : 8 бит
Тип развёртки : Прогрессивная
Бит/(Пиксели*Кадры) : 0.353
Размер потока : 5,72 Гбайт (84%)
Библиотека кодирования : x264 core 148 r2597 e86f3a1
Настройки программы : cabac=1 / ref=9 / deblock=1:-3:-3 / analyse=0x3:0x113 / me=umh / subme=10 / psy=1 / psy_rd=1.00:0.15 / mixed_ref=1 / me_range=32 / chroma_me=1 / trellis=2 / 8x8dct=1 / cqm=0 / deadzone=21,11 / fast_pskip=1 / chroma_qp_offset=-3 / threads=4 / lookahead_threads=1 / sliced_threads=0 / nr=0 / decimate=0 / interlaced=0 / bluray_compat=0 / constrained_intra=0 / bframes=10 / b_pyramid=2 / b_adapt=2 / b_bias=0 / direct=1 / weightb=1 / open_gop=0 / weightp=2 / keyint=250 / keyint_min=23 / scenecut=40 / intra_refresh=0 / rc=crf / mbtree=0 / crf=18.0 / qcomp=0.70 / qpmin=0 / qpmax=69 / qpstep=4 / ip_ratio=1.40 / pb_ratio=1.30 / aq=1:1.00
Default : Нет
Forced : Нет
Цветовой диапазон : Limited
Основные цвета : BT.709
Характеристики трансфера : BT.709
Коэффициенты матрицы : BT.709
Аудио #1
Идентификатор : 2
Формат : AC-3
Формат/Информация : Audio Coding 3
Расширение режима : CM (complete main)
Параметр Endianness формата : Big
Идентификатор кодека : A_AC3
Продолжительность : 1 ч. 44 м.
Вид битрейта : Постоянный
Битрейт : 640 Кбит/сек
Каналы : 2 канала
Расположение каналов : Front: L R
Частота : 48,0 КГц
Метод сжатия : С потерями
Размер потока : 480 Мбайт (7%)
Заголовок : MVO
Язык : Russian
Default : Да
Forced : Нет
Аудио #2
Идентификатор : 3
Формат : AC-3
Формат/Информация : Audio Coding 3
Расширение режима : CM (complete main)
Параметр Endianness формата : Big
Идентификатор кодека : A_AC3
Продолжительность : 1 ч. 44 м.
Вид битрейта : Постоянный
Битрейт : 192 Кбит/сек
Каналы : 2 канала
Расположение каналов : Front: L R
Частота : 48,0 КГц
Метод сжатия : С потерями
Задержка видео : 170 мс.
Размер потока : 144 Мбайт (2%)
Заголовок : AVO Володарский
Язык : Russian
Default : Нет
Forced : Нет
Аудио #3
Идентификатор : 4
Формат : AC-3
Формат/Информация : Audio Coding 3
Расширение режима : CM (complete main)
Параметр Endianness формата : Big
Идентификатор кодека : A_AC3
Продолжительность : 1 ч. 44 м.
Вид битрейта : Постоянный
Битрейт : 224 Кбит/сек
Каналы : 2 канала
Расположение каналов : Front: L R
Частота : 48,0 КГц
Метод сжатия : С потерями
Размер потока : 168 Мбайт (2%)
Язык : French
Default : Нет
Forced : Нет
Аудио #4
Идентификатор : 5
Формат : AC-3
Формат/Информация : Audio Coding 3
Расширение режима : CM (complete main)
Параметр Endianness формата : Big
Идентификатор кодека : A_AC3
Продолжительность : 1 ч. 44 м.
Вид битрейта : Постоянный
Битрейт : 224 Кбит/сек
Каналы : 2 канала
Расположение каналов : Front: L R
Частота : 48,0 КГц
Метод сжатия : С потерями
Размер потока : 168 Мбайт (2%)
Язык : English
Default : Нет
Forced : Нет
Текст #1
Идентификатор : 6
Формат : UTF-8
Идентификатор кодека : S_TEXT/UTF8
Идентификатор кодека/Информация : UTF-8 Plain Text
Язык : Russian
Default : Нет
Forced : Нет
Текст #2
Идентификатор : 7
Формат : UTF-8
Идентификатор кодека : S_TEXT/UTF8
Идентификатор кодека/Информация : UTF-8 Plain Text
Язык : French
Default : Да
Forced : Нет
Меню
00:00:00.000 : en:part 01 (00:00)
00:07:00.000 : en:part 02 (00:07)
00:14:00.000 : en:part 03 (00:14)
00:21:00.000 : en:part 04 (00:21)
00:28:00.000 : en:part 05 (00:28)
00:35:00.000 : en:part 06 (00:35)
00:42:00.000 : en:part 07 (00:42)
00:49:00.000 : en:part 08 (00:49)
00:56:00.000 : en:part 09 (00:56)
01:03:00.000 : en:part 10 (01:03)
01:10:00.000 : en:part 11 (01:10)
01:17:00.000 : en:part 12 (01:17)
01:24:00.000 : en:part 13 (01:24)
01:31:00.000 : en:part 14 (01:31)
01:38:00.000 : en:part 15 (01:38)
Скриншоты сравнения
[url=http://***/forum/viewtopic.php?p=29532155]http://***/forum/viewtopic.php?p=29532155[/url]
[url=http://***/forum/viewtopic.php?t=2463750]http://***/forum/viewtopic.php?t=2463750[/url]
Remux

Rip 4,1 Gb

Rip 6,7
Скачать

Скачать торрент!

Как скачивать? · Что такое торрент? · Рейтинг и ограничения

Сайт не распространяет и не хранит электронные версии произведений, а лишь предоставляет доступ к создаваемому пользователями каталогу ссылок на торрент-файлы, которые содержат только списки хеш-сумм

[Профиль] [ЛС]
Показать сообщения:    
Ответить на тему

Текущее время: Сегодня 02:08

Часовой пояс: GMT + 4



Вы не можете начинать темы
Вы не можете отвечать на сообщения
Вы не можете редактировать свои сообщения
Вы не можете удалять свои сообщения
Вы не можете голосовать в опросах
Вы не можете прикреплять файлы к сообщениям
Вы не можете скачивать файлы