Свирепые создания / Fierce Creatures (Фред Скеписи / Fred Schepisi, Роберт Янг / Robert Young) [1997, Великобритания, США, комедия, BDRip 720p] 2x MVO (Премьер-Видео, Первый канал) + AVO (Живов) + Original (Eng) + Sub (Eng)

Ответить на тему
 
Автор Сообщение

user ®

Стаж: 7 лет 7 месяцев

Сообщений: 20008

Пост Пост: #1 от 08-Окт-2015 14:57

[Цитировать]

Свирепые создания / Fierce Creatures
«Don't pet them»
- Страна: Великобритания, США
Жанр: комедия
Год выпуска: 1997
Продолжительность: 01:33:12-Перевод №1: Профессиональный (многоголосый закадровый) - Премьер-Видео
Перевод №2: Профессиональный (многоголосый закадровый) - Первый канал
Перевод №3: Авторский (одноголосый закадровый) - Юрий Живов
Оригинальная аудиодорожка: English
Cубтитры: English (full)
Навигация по главам: присутствует - 12 глав-Режиссер: Фред Скеписи / Fred Schepisi, Роберт Янг / Robert Young
В ролях: Джон Клиз, Джейми Ли Кёртис, Кевин Клайн, Роберт Линдсей, Майкл Пэйлин, Ронни Корбетт, Кэри Лоуэлл, Билли Браун, Мария Аиткен, Дерек Гриффитс-Описание: Расчетливый магнат Род МакКейн покупает убыточный лондонский зоопарк в надежде превратить его в сверхприбыльное предприятие. Новый управляющий Ролло Ли, призванный обеспечить зоопарку финансовое процветание, начинает внедрять жесткую маркетинговую политику. Отныне вместо небольших пушистых зверьков в клетках поселятся только самые свирепые хищники. Их-то и будут демонстрировать публике. Возмущенные таким кощунством служители зоопарка, под руководством специалиста по насекомым Эдриана «Багзи» Малоуна, начинают борьбу за спасение своих пушистых друзей…-
Download sample-Качество видео: BDRip 720p | исх. [url=http://***/forum/viewtopic.php?t=4996862]Blu-ray Disc 1080p[/url] - thx: АДмин
Формат: MKV-Видео: 1 280x544 (2.35:1), 23.976 fps, H.264 ~6 200 kbps avg, 0.363 bit/pixel
Аудио №1: 48 kHz, AC3 Dolby Digital, 2/0 (L,R), ~192 kbps | Профессиональный (многоголосый закадровый) - Премьер-Видео
Аудио №2: 48 kHz, AC3 Dolby Digital, 2/0 (L,R), ~192 kbps | Профессиональный (многоголосый закадровый) - Первый канал
Аудио №3: 48.0 kHz, AC3 Dolby Digital, 3/2 (L,C,R,l,r) + LFE ch, ~384 kbps | Авторский (одноголосый закадровый) - Юрий Живов
Аудио №4: 48.0 kHz, AC3 Dolby Digital, 3/2 (L,C,R,l,r) + LFE ch, ~640 kbps | English
Субтитры: English (full) | *.srt-

MediaInfo
General
Unique ID : 205214628175160015643668105462654934488 (0x9A62E6558CB2AC718851852E99979DD8)
Complete name : D:\Фильмы\Рипы\Fierce Creatures.1997.BDRip 720p.eFK tRuAVC.mkv
Format : Matroska
Format version : Version 4 / Version 2
File size : 4.97 GiB
Duration : 1h 33mn
Overall bit rate : 7 628 Kbps
Movie name : Свирепые создания / Fierce Creatures (1997) - Release for rutracker
Encoded date : UTC 2015-10-07 17:00:41
Writing application : mkvmerge v7.6.0 ('Garden of Dreams') 64bit built on Feb 8 2015 13:04:34
Writing library : libebml v1.3.1 + libmatroska v1.4.2
Attachements : cover.png
DURATION : 01:28:33.983000000
NUMBER_OF_FRAMES : 1392
NUMBER_OF_BYTES : 58077
_STATISTICS_WRITING_APP : mkvmerge v7.6.0 ('Garden of Dreams') 64bit built on Feb 8 2015 13:04:34
_STATISTICS_WRITING_DATE_UT : 2015-10-07 17:00:41
_STATISTICS_TAGS : BPS DURATION NUMBER_OF_FRAMES NUMBER_OF_BYTES
Video
ID : 1
Format : AVC
Format/Info : Advanced Video Codec
Format profile : High@L4.1
Format settings, CABAC : Yes
Format settings, ReFrames : 11 frames
Codec ID : V_MPEG4/ISO/AVC
Duration : 1h 33mn
Bit rate : 6 068 Kbps
Width : 1 280 pixels
Height : 544 pixels
Display aspect ratio : 2.35:1
Frame rate mode : Constant
Frame rate : 23.976 fps
Color space : YUV
Chroma subsampling : 4:2:0
Bit depth : 8 bits
Scan type : Progressive
Bits/(Pixel*Frame) : 0.363
Stream size : 3.95 GiB (80%)
Title : eFK tRuAVC
Writing library : x264 core 148 r2597kMod e86f3a1
Encoding settings : cabac=1 / ref=11 / deblock=1:-3:-2 / analyse=0x3:0x113 / me=umh / subme=11 / psy=1 / fade_compensate=0.00 / psy_rd=1.02:0.00 / mixed_ref=1 / me_range=48 / chroma_me=1 / trellis=2 / 8x8dct=1 / cqm=0 / deadzone=21,11 / fast_pskip=0 / chroma_qp_offset=-2 / threads=12 / lookahead_threads=3 / sliced_threads=0 / nr=0 / decimate=1 / interlaced=0 / bluray_compat=0 / constrained_intra=0 / fgo=0 / bframes=16 / b_pyramid=2 / b_adapt=2 / b_bias=0 / direct=3 / weightb=1 / open_gop=0 / weightp=2 / keyint=250 / keyint_min=23 / scenecut=40 / intra_refresh=0 / rc_lookahead=60 / rc=crf / mbtree=0 / crf=16.7000 / qcomp=0.65 / qpmin=0 / qpmax=69 / qpstep=4 / vbv_maxrate=62500 / vbv_bufsize=78125 / crf_max=0.0 / nal_hrd=none / filler=0 / ip_ratio=1.40 / pb_ratio=1.30 / aq=3:1.00
Language : English
Default : Yes
Forced : No
Color range : Limited
Color primaries : BT.709
Transfer characteristics : BT.709
Matrix coefficients : BT.709
DURATION : 01:33:12.587000000
NUMBER_OF_FRAMES : 134088
NUMBER_OF_BYTES : 4345714311
_STATISTICS_WRITING_APP : mkvmerge v7.6.0 ('Garden of Dreams') 64bit built on Feb 8 2015 13:04:34
_STATISTICS_WRITING_DATE_UT : 2015-10-07 17:00:41
_STATISTICS_TAGS : BPS DURATION NUMBER_OF_FRAMES NUMBER_OF_BYTES
Audio #1
ID : 2
Format : AC-3
Format/Info : Audio Coding 3
Format profile : Dolby Digital
Mode extension : CM (complete main)
Format settings, Endianness : Big
Codec ID : A_AC3
Duration : 1h 33mn
Bit rate mode : Constant
Bit rate : 192 Kbps
Channel(s) : 2 channels
Channel positions : Front: L R
Sampling rate : 48.0 KHz
Compression mode : Lossy
Stream size : 128 MiB (3%)
Title : MVO (Премьер-Видео)
Language : Russian
Default : Yes
Forced : No
Audio #2
ID : 3
Format : AC-3
Format/Info : Audio Coding 3
Format profile : Dolby Digital
Mode extension : CM (complete main)
Format settings, Endianness : Big
Codec ID : A_AC3
Duration : 1h 33mn
Bit rate mode : Constant
Bit rate : 192 Kbps
Channel(s) : 2 channels
Channel positions : Front: L R
Sampling rate : 48.0 KHz
Compression mode : Lossy
Stream size : 128 MiB (3%)
Title : MVO (Первый канал)
Language : Russian
Default : No
Forced : No
Audio #3
ID : 4
Format : AC-3
Format/Info : Audio Coding 3
Mode extension : CM (complete main)
Format settings, Endianness : Big
Codec ID : A_AC3
Duration : 1h 33mn
Bit rate mode : Constant
Bit rate : 384 Kbps
Channel(s) : 6 channels
Channel positions : Front: L C R, Side: L R, LFE
Sampling rate : 48.0 KHz
Compression mode : Lossy
Stream size : 256 MiB (5%)
Title : AVO (Живов)
Language : Russian
Default : No
Forced : No
Audio #4
ID : 5
Format : AC-3
Format/Info : Audio Coding 3
Mode extension : CM (complete main)
Format settings, Endianness : Big
Codec ID : A_AC3
Duration : 1h 33mn
Bit rate mode : Constant
Bit rate : 640 Kbps
Channel(s) : 6 channels
Channel positions : Front: L C R, Side: L R, LFE
Sampling rate : 48.0 KHz
Compression mode : Lossy
Stream size : 427 MiB (8%)
Language : English
Default : No
Forced : No
Text
ID : 6
Format : UTF-8
Codec ID : S_TEXT/UTF8
Codec ID/Info : UTF-8 Plain Text
Title : full
Language : English
Default : No
Forced : No
Menu
00:00:00.000 : :Chapter 01
00:08:18.581 : :Chapter 02
00:17:06.567 : :Chapter 03
00:22:41.234 : :Chapter 04
00:28:27.247 : :Chapter 05
00:39:01.547 : :Chapter 06
00:49:52.614 : :Chapter 07
00:58:01.686 : :Chapter 08
01:02:51.392 : :Chapter 09
01:15:01.455 : :Chapter 10
01:23:13.321 : :Chapter 11
01:29:33.326 : :Chapter 12
x264 log
x264 [info]: frame I:1151 Avg QP:15.78 size:122929
x264 [info]: frame P:27460 Avg QP:17.15 size: 57167
x264 [info]: frame B:105477 Avg QP:19.21 size: 24976
x264 [info]: consecutive B-frames: 1.5% 1.3% 5.6% 20.4% 19.8% 41.8% 5.8% 1.6% 1.1% 0.4% 0.2% 0.1% 0.1% 0.0% 0.0% 0.0% 0.2%
x264 [info]: mb I I16..4: 2.1% 80.6% 17.3%
x264 [info]: mb P I16..4: 0.1% 18.6% 1.5% P16..4: 24.7% 33.6% 17.7% 0.0% 0.0% skip: 3.6%
x264 [info]: mb B I16..4: 0.0% 3.7% 0.1% B16..8: 31.2% 26.7% 7.0% direct:10.2% skip:21.0% L0:39.4% L1:37.6% BI:23.0%
x264 [info]: 8x8 transform intra:92.1% inter:48.6%
x264 [info]: direct mvs spatial:99.9% temporal:0.1%
x264 [info]: coded y,uvDC,uvAC intra: 98.4% 93.7% 80.8% inter: 44.7% 27.9% 5.1%
x264 [info]: i16 v,h,dc,p: 36% 8% 11% 46%
x264 [info]: i8 v,h,dc,ddl,ddr,vr,hd,vl,hu: 10% 8% 13% 9% 13% 11% 11% 11% 13%
x264 [info]: i4 v,h,dc,ddl,ddr,vr,hd,vl,hu: 10% 7% 4% 9% 16% 15% 14% 12% 13%
x264 [info]: i8c dc,h,v,p: 50% 18% 18% 15%
x264 [info]: Weighted P-Frames: Y:4.3% UV:1.7%
x264 [info]: ref P L0: 41.3% 11.9% 18.9% 6.6% 6.1% 3.8% 3.8% 2.0% 2.1% 1.6% 1.7% 0.1% 0.0%
x264 [info]: ref B L0: 74.2% 11.2% 5.0% 2.9% 2.0% 1.7% 1.3% 0.9% 0.5% 0.3%
x264 [info]: ref B L1: 94.1% 5.9%
x264 [info]: kb/s:6216.39
x264 [total]: encoded 134088 frames, 6.64 fps, 6216.39 kb/s, duration 5:36:39.05
Screenshots ComparisonSource

Encode
[url=http://***/forum/viewtopic.php?t=2840511]http://***/forum/viewtopic.php?t=2840511[/url] http://screenshotcomparison.com/comparison/145829
Скачать

Скачать торрент!

Как скачивать? · Что такое торрент? · Рейтинг и ограничения

Сайт не распространяет и не хранит электронные версии произведений, а лишь предоставляет доступ к создаваемому пользователями каталогу ссылок на торрент-файлы, которые содержат только списки хеш-сумм

[Профиль] [ЛС]
Показать сообщения:    
Ответить на тему

Текущее время: Сегодня 06:05

Часовой пояс: GMT + 4



Вы не можете начинать темы
Вы не можете отвечать на сообщения
Вы не можете редактировать свои сообщения
Вы не можете удалять свои сообщения
Вы не можете голосовать в опросах
Вы не можете прикреплять файлы к сообщениям
Вы не можете скачивать файлы