Мили / Mili (Ришикеш Мукхерджи / Hrishikesh Mukherjee) [1976, Индия, Мелодрама, DVDRip] DVO (Русское счастье Энтертеймент)

Ответить на тему
 
Автор Сообщение

user ®

Стаж: 12 лет

Сообщений: 15092

Пост Пост: #1 от 07-Окт-2015 14:06

[Цитировать]

Мили / Mili
Страна: Индия
Жанр: Мелодрама
Год выпуска: 1976
Продолжительность: 02:00:18
Перевод: Профессиональный (двухголосый закадровый) Русское счастье Энтертеймент
Cубтитры: нет
Оригинальная аудиодорожка: нет
Режиссер: Ришикеш Мукхерджи / Hrishikesh Mukherjee
В ролях: Джая Бхадури, Амитабх Баччан, Ашок Кумар, Аруна Ирани, Говардан Асрани, Шубха Кхоте, Уша Киран, Суреш Чатвал, Раджнатх, Найна Апте, Аарти, Шахана, Чандра, Арабинд, Нандита Арас
Описание: Описание: Юная Мили была как родная в каждой квартире большого жилого дома. С её энергией и неуемным интересом к жизни девушка завоевала любовь жителей. Ее маленькая семья, состоящая из отца, овдовевшей тети и брата, стала любимой среди обитателей дома. Мили была вожаком группы весёлых детей. На террасе их дома было достаточно места, чтобы играть и репетировать свои театральные экспромты. Но некто купил квартиру на последнем этаже и запретил ребятам вход на террасу. Обстановка накалялась. Новый житель - Шекхар - единственный сын пользующегося дурной славой Шанкара Даяла, которого несколько лет назад обвинили в убийстве своей жены. Шекхар, выросший в тени скандала вокруг родителей, избегал общения и проводил время в одиночестве, играя на флейте и глядя на звезды через телескоп, установленной в его квартире. Скандал преследовал Шекхара постоянно, и, защищаясь, он выстроил стену одиночества вокруг себя. Мили узнала о трагедии этого молодого человека и отнеслась к нему с пониманием, благодаря чему в течении нескольких дней сумела проникнуть в мир Шекхара, а он впервые увидел человека, которого не волновало его прошлое. Мили пообещала не ломать границы его личного мира. В свою очередь Шекхар показал Мили чудеса мира астрономии, куда он погружался, и вскоре они полюбили друг друга. Но жестокая судьба нанесла им удар...
Доп. информация: Рип найден в сети - Спасибо зарубежным друзьям.
За основу взят звук из раздачи Dace - Спасибо!
Синхронизация аудиодорожки под данный рип - Aleksgreek.
Любимые актёры! Надеюсь, кого-то порадует этот фильм с отличной картинкой.
Релиз-группа:
Данный формат (MKV) воспроизводится не всеми бытовыми проигрывателями.
Сэмпл: http://sendfile.su/1148785
Качество видео: DVDRip
Формат видео: MKV
Видео: AVC, 720Х528, 4:3, 23.976 fps, 1 531 Kbps
Аудио: AC3, 48 KHz, 192 Kbps, 2 channels, русский
MediaInfo
Format : Matroska
Format version : Version 2
File size : 1.44 GiB
Duration : 2h 0mn
Overall bit rate : 1 716 Kbps
Encoded date : UTC 2015-08-24 08:20:58
Writing application : mkvmerge v5.7.0 ('The Whirlwind') built on Jul 8 2012 20:08:51
Writing library : libebml v1.2.3 + libmatroska v1.3.0
Video
ID : 1
Format : AVC
Format/Info : Advanced Video Codec
Format profile : High@L4.1
Format settings, CABAC : Yes
Format settings, ReFrames : 5 frames
Codec ID : V_MPEG4/ISO/AVC
Duration : 2h 0mn
Bit rate mode : Variable
Bit rate : 1 531 Kbps
Maximum bit rate : 62.5 Mbps
Width : 720 pixels
Height : 528 pixels
Display aspect ratio : 4:3
Frame rate : 23.976 fps
Color space : YUV
Chroma subsampling : 4:2:0
Bit depth : 8 bits
Scan type : Progressive
Bits/(Pixel*Frame) : 0.168
Stream size : 1.25 GiB (87%)
Writing library : x264 core 146 r2538 121396c
Encoding settings : cabac=1 / ref=5 / deblock=1:-1:-1 / analyse=0x3:0x113 / me=umh / subme=8 / psy=1 / psy_rd=1.00:0.15 / mixed_ref=1 / me_range=16 / chroma_me=1 / trellis=1 / 8x8dct=1 / cqm=0 / deadzone=21,11 / fast_pskip=1 / chroma_qp_offset=-3 / threads=12 / lookahead_threads=2 / sliced_threads=0 / nr=500 / decimate=1 / interlaced=0 / bluray_compat=0 / constrained_intra=0 / bframes=3 / b_pyramid=2 / b_adapt=2 / b_bias=1 / direct=3 / weightb=1 / open_gop=0 / weightp=2 / keyint=240 / keyint_min=23 / scenecut=40 / intra_refresh=0 / rc_lookahead=50 / rc=2pass / mbtree=1 / bitrate=1531 / ratetol=1.0 / qcomp=0.60 / qpmin=0 / qpmax=69 / qpstep=4 / cplxblur=20.0 / qblur=0.5 / vbv_maxrate=62500 / vbv_bufsize=78125 / nal_hrd=vbr / filler=0 / ip_ratio=1.40 / aq=1:1.00
Language : Hindi
Color primaries : BT.470-6 System B, BT.470-6 System G, BT.601-6 625, BT.1358 625, BT.1700 625 PAL, BT.1700 625 SECAM
Transfer characteristics : BT.470-6 System B, BT.470-6 System G
Matrix coefficients : BT.470-6 System B, BT.470-6 System G, BT.601-6 625, BT.1358 625, BT.1700 625 PAL, BT.1700 625 SECAM, IEC 61966-2-4 601
Audio
ID : 2
Format : AC-3
Format/Info : Audio Coding 3
Mode extension : CM (complete main)
Muxing mode : Header stripping
Codec ID : A_AC3
Duration : 2h 0mn
Bit rate mode : Constant
Bit rate : 192 Kbps
Channel(s) : 2 channels
Channel positions : Front: L R
Sampling rate : 48.0 KHz
Bit depth : 16 bits
Compression mode : Lossy
Stream size : 165 MiB (11%)
Language : Russian
Menu #1
00:00:00.000 : en:Chapter 01
00:00:00.534 : en:Chapter 02
00:05:01.701 : en:Chapter 03
00:09:41.169 : en:Chapter 04
00:12:36.137 : en:Chapter 05
00:16:00.871 : en:Chapter 06
00:21:48.004 : en:Chapter 07
00:25:36.037 : en:Chapter 08
00:28:51.005 : en:Chapter 09
00:33:42.906 : en:Chapter 10
00:42:21.807 : en:Chapter 11
00:43:30.574 : en:Chapter 12
00:48:12.208 : en:Chapter 13
00:53:20.942 : en:Chapter 14
00:58:28.576 : en:Chapter 15
01:07:08.010 : en:Chapter 16
01:11:53.444 : en:Chapter 17
01:15:26.844 : en:Chapter 18
01:22:08.645 : en:Chapter 19
01:29:40.812 : en:Chapter 20
01:36:23.246 : en:Chapter 21
01:45:09.714 : en:Chapter 22
01:48:36.615 : en:Chapter 23
01:56:21.349 : en:Chapter 24
01:59:36.883 : en:Chapter 25
Menu #2
00:00:00.097 : en:00:00:00.097
Скриншот c названием фильма Скриншоты
Скачать

Скачать торрент! Мили / Mili (Ришикеш Мукхерджи / Hrishikesh Mukherjee) [1976, Индия, Мелодрама, DVDRip] DVO (Русское счастье Энтертеймент)

Как скачивать? · Что такое торрент? · Рейтинг и ограничения

Сайт не распространяет и не хранит электронные версии произведений, а лишь предоставляет доступ к создаваемому пользователями каталогу ссылок на торрент-файлы, которые содержат только списки хеш-сумм

[Профиль] [ЛС]
Показать сообщения:    
Ответить на тему

Текущее время: Сегодня 17:45

Часовой пояс: GMT + 4



Вы не можете начинать темы
Вы не можете отвечать на сообщения
Вы не можете редактировать свои сообщения
Вы не можете удалять свои сообщения
Вы не можете голосовать в опросах
Вы не можете прикреплять файлы к сообщениям
Вы не можете скачивать файлы