Идеальные каникулы / A Perfect Vacation / Awaken (Марк Аткинс / Mark Atkins) [2015, США, Боевик, триллер, HDRip] VO (datynet)

Ответить на тему
 
Автор Сообщение

user ®

Стаж: 7 лет 7 месяцев

Сообщений: 20008

Пост Пост: #1 от 07-Окт-2015 14:06

[Цитировать]

Идеальные каникулы / A Perfect Vacation (Awaken)-« На этот раз они взяли не ту девушку »- Страна: США
Жанр: Боевик, триллер
Год выпуска: 2015
Продолжительность: 01:28:33-Перевод: Одноголосый закадровый datynet
Cубтитры: нет
Оригинальная аудиодорожка: нет-Режиссер: Марк Аткинс / Mark Atkins-В ролях: Эдвард Ферлонг, Дэрил Ханна, Винни Джонс, Майкл Паре, Джейсон Лондон, Наталия Гуслистая, Роберт Дави, Дэвид Кит, Криста Кэмпбелл, Майкл Копон-Описание: Группа незнакомых людей просыпается на острове, где за ними охотятся похитители органов.-Сэмпл / КиноПоиск-Качество видео: HDRip
Формат видео: AVI-Видео: MPEG-4 Visual at 1757 Кбит/сек, 720 x 400 (1.800) at 23.976 fps
Аудио: AC-3 at 448 Кбит/сек, 6 каналов, 48,0 КГц
MediaInfo
Общее
Полное имя : F:\Rutracker-Razdachi\Awaken.2015.L1.HDRip.avi
Формат : AVI
Формат/Информация : Audio Video Interleave
Размер файла : 1,37 Гбайт
Продолжительность : 1 ч. 28 м.
Общий поток : 2215 Кбит/сек
Программа кодирования : VirtualDubMod 1.5.10.2 (build 2540/release)
Библиотека кодирования : VirtualDubMod build 2540/release
Авторское право : ExKinoRay
Видео
Идентификатор : 0
Формат : MPEG-4 Visual
Профиль формата : Advanced Simple@L5
Параметр BVOP формата : 1
Параметр QPel формата : Нет
Параметр GMC формата : Без точки перехода
Параметр матрицы формата : Выборочная
Идентификатор кодека : XVID
Идентификатор кодека/Подсказка : XviD
Продолжительность : 1 ч. 28 м.
Битрейт : 1757 Кбит/сек
Ширина : 720 пикселей
Высота : 400 пикселей
Соотношение сторон : 16:9
Частота кадров : 23,976 кадра/сек
Цветовое пространство : YUV
Субдискретизация насыщенности : 4:2:0
Битовая глубина : 8 бит
Тип развёртки : Прогрессивная
Метод сжатия : С потерями
Бит/(Пиксели*Кадры) : 0.255
Размер потока : 1,09 Гбайт (79%)
Библиотека кодирования : XviD 73
Аудио
Идентификатор : 1
Формат : AC-3
Формат/Информация : Audio Coding 3
Расширение режима : CM (complete main)
Параметр Endianness формата : Big
Идентификатор кодека : 2000
Продолжительность : 1 ч. 28 м.
Вид битрейта : Постоянный
Битрейт : 448 Кбит/сек
Каналы : 6 каналов
Расположение каналов : Front: L C R, Side: L R, LFE
Частота : 48,0 КГц
Битовая глубина : 16 бит
Метод сжатия : С потерями
Размер потока : 284 Мбайт (20%)
Выравнивание : Разделение по промежуткам
Продолжительность промежутка : 42 мс. (1,00 видеокадр)
Время предзагрузки промежутка : 500 мс.
Заголовок : xixidok
Скриншоты
Скачать

Скачать торрент!

Как скачивать? · Что такое торрент? · Рейтинг и ограничения

Сайт не распространяет и не хранит электронные версии произведений, а лишь предоставляет доступ к создаваемому пользователями каталогу ссылок на торрент-файлы, которые содержат только списки хеш-сумм

[Профиль] [ЛС]
Показать сообщения:    
Ответить на тему

Текущее время: Сегодня 22:03

Часовой пояс: GMT + 4



Вы не можете начинать темы
Вы не можете отвечать на сообщения
Вы не можете редактировать свои сообщения
Вы не можете удалять свои сообщения
Вы не можете голосовать в опросах
Вы не можете прикреплять файлы к сообщениям
Вы не можете скачивать файлы