Левша / Southpaw (Антуан Фукуа / Antoine Fuqua) [2015, США, драма, спорт, боевик, триллер, BDRip 720p] Dub (iTunes) + Original Eng + Sub Eng

Ответить на тему
 
Автор Сообщение

user ®

Стаж: 7 лет 7 месяцев

Сообщений: 20008

Пост Пост: #1 от 07-Окт-2015 01:45

[Цитировать]

Левша / Southpaw«Преодолей судьбу»_________________________________________________________________________________________
Страна: США
Студия: Escape Artists, Fuqua Films, Riche Productions
Жанр: драма, спорт, боевик, триллер
Год выпуска: 2015
Продолжительность: 02:03:49
Перевод: Профессиональный (дублированный) |iTunes|
Оригинальная аудиодорожка: английский
Cубтитры: английские (полные, SDH)
Режиссер: Антуан Фукуа / Antoine Fuqua
В ролях: Джейк Джилленхол , Рэйчел МакАдамс , Форест Уитакер , Уна Лоуренс , Фифти Сент , Скайлан Брукс , Наоми Харрис , Виктор Ортис , Бо Напп , Мигель Гомес , Доминик Колон , Хосе Карабалло
Описание: У боксера Билли Хоупа все было прекрасно: звание чемпиона, красавица-жена и любимая дочка. Но фортуна отворачивается от него: при трагических обстоятельствах погибает любимая жена, дисквалификация на ринге, нулевые доходы, суд лишает его родительских прав... Хоуп должен отстоять звание чемпиона и вернуть дочь. Есть ли у Хоупа шансы на победу? Все решит его знаменитый хук левой...
_________________________________________________________________________________________

Видеоряд от: HiDt
Тип релиза: BDRip 720p
Контейнер: MKV
Видео: 1280x532 at 23.976 fps, x264@L4.1, crf=16.1, ~7037 kbps avg
Аудио 1 : Russian: 48 kHz, AC3, 3/2 (L,C,R,l,r) + LFE ch, ~384.00 kbps avg |Дубляж, iTunes|
Аудио 2: English: 48 kHz, DTS, 3/2 (L,C,R,l,r) + LFE ch, ~1536 kbps avg
Cубтитры: English (full, SDH)
Скриншоты MediaInfo
General
Unique ID : 240209445062023873095772669248231125115 (0xB4B6A8046363C195B7F3F17A9A6B307B)
Complete name : D:\Southpaw.2015.720p.BluRay.x264.Rus.Eng.-HiDt.mkv
Format : Matroska
Format version : Version 4 / Version 2
File size : 7.88 GiB
Duration : 2h 3mn
Overall bit rate : 9 111 Kbps
Movie name : Левша / Southpaw (2015)
Encoded date : UTC 2015-10-06 05:37:35
Writing application : mkvmerge v8.3.0 ('Over the Horizon') 64bit
Writing library : libebml v1.3.1 + libmatroska v1.4.2
Attachements : cover.jpg
DURATION : 02:03:48.214000000
NUMBER_OF_FRAMES : 696395
NUMBER_OF_BYTES : 1401146740
_STATISTICS_WRITING_APP : mkvmerge v8.3.0 ('Over the Horizon') 64bit
_STATISTICS_WRITING_DATE_UT : 2015-10-06 05:37:35
_STATISTICS_TAGS : BPS DURATION NUMBER_OF_FRAMES NUMBER_OF_BYTES
Video
ID : 1
Format : AVC
Format/Info : Advanced Video Codec
Format profile : High@L4.1
Format settings, CABAC : Yes
Format settings, ReFrames : 12 frames
Codec ID : V_MPEG4/ISO/AVC
Duration : 2h 3mn
Bit rate : 7 037 Kbps
Width : 1 280 pixels
Height : 532 pixels
Display aspect ratio : 2.40:1
Frame rate mode : Constant
Frame rate : 23.976 fps
Color space : YUV
Chroma subsampling : 4:2:0
Bit depth : 8 bits
Scan type : Progressive
Bits/(Pixel*Frame) : 0.431
Stream size : 6.09 GiB (77%)
Title : Левша / Southpaw (2015) / BDRip 720p -=HiDt=-
Writing library : x264 core 148 r2597 e86f3a1
Encoding settings : cabac=1 / ref=12 / deblock=1:-3:-3 / analyse=0x3:0x133 / me=tesa / subme=11 / psy=1 / psy_rd=1.00:0.00 / mixed_ref=1 / me_range=32 / chroma_me=1 / trellis=2 / 8x8dct=1 / cqm=0 / deadzone=21,11 / fast_pskip=0 / chroma_qp_offset=-2 / threads=12 / lookahead_threads=3 / sliced_threads=0 / nr=0 / decimate=1 / interlaced=0 / bluray_compat=0 / constrained_intra=0 / bframes=10 / b_pyramid=2 / b_adapt=2 / b_bias=0 / direct=3 / weightb=1 / open_gop=0 / weightp=2 / keyint=240 / keyint_min=23 / scenecut=40 / intra_refresh=0 / rc_lookahead=60 / rc=crf / mbtree=0 / crf=16.1 / qcomp=0.73 / qpmin=0 / qpmax=69 / qpstep=4 / vbv_maxrate=62500 / vbv_bufsize=78125 / crf_max=0.0 / nal_hrd=none / filler=0 / ip_ratio=1.24 / pb_ratio=1.18 / aq=1:0.80
Language : English
Default : Yes
Forced : No
DURATION : 02:03:49.297000000
NUMBER_OF_FRAMES : 178125
NUMBER_OF_BYTES : 6700982089
_STATISTICS_WRITING_APP : mkvmerge v8.3.0 ('Over the Horizon') 64bit
_STATISTICS_WRITING_DATE_UT : 2015-10-06 05:37:35
_STATISTICS_TAGS : BPS DURATION NUMBER_OF_FRAMES NUMBER_OF_BYTES
Audio #1
ID : 2
Format : AC-3
Format/Info : Audio Coding 3
Mode extension : CM (complete main)
Format settings, Endianness : Big
Codec ID : A_AC3
Duration : 2h 3mn
Bit rate mode : Constant
Bit rate : 384 Kbps
Channel(s) : 6 channels
Channel positions : Front: L C R, Side: L R, LFE
Sampling rate : 48.0 KHz
Compression mode : Lossy
Stream size : 340 MiB (4%)
Title : Дубляж (iTunes)
Language : Russian
Default : Yes
Forced : No
Audio #2
ID : 3
Format : DTS
Format/Info : Digital Theater Systems
Mode : 16
Format settings, Endianness : Big
Codec ID : A_DTS
Duration : 2h 3mn
Bit rate mode : Constant
Bit rate : 1 509 Kbps
Channel(s) : 6 channels
Channel positions : Front: L C R, Side: L R, LFE
Sampling rate : 48.0 KHz
Bit depth : 24 bits
Compression mode : Lossy
Stream size : 1.31 GiB (17%)
Language : English
Default : No
Forced : No
Text #1
ID : 4
Format : UTF-8
Codec ID : S_TEXT/UTF8
Codec ID/Info : UTF-8 Plain Text
Language : English
Default : No
Forced : No
Text #2
ID : 5
Format : UTF-8
Codec ID : S_TEXT/UTF8
Codec ID/Info : UTF-8 Plain Text
Title : SDH
Language : English
Default : No
Forced : No
Menu
00:00:00.000 : en:00:00:00.000
00:08:49.696 : en:00:08:49.696
00:12:58.569 : en:00:12:58.569
00:20:00.658 : en:00:20:00.658
00:23:40.085 : en:00:23:40.085
00:29:34.147 : en:00:29:34.147
00:34:59.556 : en:00:34:59.556
00:39:44.299 : en:00:39:44.299
00:45:46.285 : en:00:45:46.285
00:52:38.655 : en:00:52:38.655
00:59:28.815 : en:00:59:28.815
01:07:08.733 : en:01:07:08.733
01:12:49.824 : en:01:12:49.824
01:18:14.481 : en:01:18:14.481
01:23:40.057 : en:01:23:40.057
01:29:40.417 : en:01:29:40.417
01:37:00.148 : en:01:37:00.148
01:45:19.897 : en:01:45:19.897
01:55:01.061 : en:01:55:01.061
01:59:38.505 : en:01:59:38.505
x264 log
x264 [info]: frame I:1439 Avg QP:14.06 size:110682
x264 [info]: frame P:42138 Avg QP:15.00 size: 55136
x264 [info]: frame B:134548 Avg QP:16.10 size: 31352
x264 [info]: consecutive B-frames: 3.5% 4.9% 11.3% 15.5% 15.1% 39.5% 5.1% 1.0% 1.2% 1.7% 1.3%
Скачать

Скачать торрент!

Как скачивать? · Что такое торрент? · Рейтинг и ограничения

Сайт не распространяет и не хранит электронные версии произведений, а лишь предоставляет доступ к создаваемому пользователями каталогу ссылок на торрент-файлы, которые содержат только списки хеш-сумм

[Профиль] [ЛС]
Показать сообщения:    
Ответить на тему

Текущее время: Сегодня 02:10

Часовой пояс: GMT + 4



Вы не можете начинать темы
Вы не можете отвечать на сообщения
Вы не можете редактировать свои сообщения
Вы не можете удалять свои сообщения
Вы не можете голосовать в опросах
Вы не можете прикреплять файлы к сообщениям
Вы не можете скачивать файлы