Сказка (Натан Лернер) [1990 г., Кукольный мультфильм, SATRip]

Ответить на тему
 
Автор Сообщение

user ®

Стаж: 8 лет 1 месяц

Сообщений: 20008

Пост Пост: #1 от 06-Окт-2015 22:39

[Цитировать]

Сказка
Год выпуска: 1990
Жанр: Кукольный мультфильм
Продолжительность: 00:08:46
Режиссер: Натан Лернер
Роли озвучивали: В.Невинный,П.Щербаков,Ю.Авшаров,К.Батанова,С.Леренер
Описание: По одноименному произведению Д.Хармса. Для детей.
Доп. информация: Студия «Союзмультфильм»
сценарист Марина Вишневецкая
художники-постановщики Т. Гроховская, Владимир Зуйков
аниматоры Татьяна Молодова, Ольга Панокина, Роман Митрофанов, Сергей Косицын
оператор Владимир Сидоров, Сергей Хлебников
композитор Михаил Меерович
Раздача группы:
РИП by Itartass
Замена рипа на более качественный 06.10.2015
Качество: SATRip
Формат: AVI
Видео кодек: XviD
Аудио кодек: MP3
Видео: 672x512 (1.31:1), 25 fps, XviD build 50 ~2221 kbps avg, 0.26 bit/pixel
Аудио: 48 kHz, MPEG Layer 3, 2 ch, ~192.00 kbps avg
сравнение старого рипа и нового MI
Format : AVI
Format/Info : Audio Video Interleave
File size : 153 MiB
Duration : 8mn 49s
Overall bit rate : 2 424 Kbps
Movie name : Сказка(1991)(SATRip)
Law rating : не проходило оценку
Writing application : VirtualDubMod 1.5.10.2 (build 2540/release) VirtualDubMod build 2540/release
Original source form/Name : мультфильм
Copyright : Itar-Tass collection
Video
ID : 0
Format : MPEG-4 Visual
Format profile : Advanced Simple@L5
Format settings, BVOP : 1
Format settings, QPel : No
Format settings, GMC : No warppoints
Format settings, Matrix : Default (MPEG)
Codec ID : XVID
Codec ID/Hint : XviD
Duration : 8mn 49s
Bit rate : 2 222 Kbps
Width : 672 pixels
Height : 512 pixels
Display aspect ratio : 4:3
Frame rate : 25.000 fps
Color space : YUV
Chroma subsampling : 4:2:0
Bit depth : 8 bits
Scan type : Progressive
Compression mode : Lossy
Bits/(Pixel*Frame) : 0.258
Stream size : 140 MiB (92%)
Writing library : XviD 1.2.1 (UTC 2008-12-04)
Audio
ID : 1
Format : MPEG Audio
Format version : Version 1
Format profile : Layer 3
Codec ID : 55
Codec ID/Hint : MP3
Duration : 8mn 49s
Bit rate mode : Constant
Bit rate : 192 Kbps
Channel(s) : 2 channels
Sampling rate : 48.0 KHz
Compression mode : Lossy
Stream size : 12.1 MiB (8%)
Alignment : Aligned on interleaves
Interleave, duration : 40 ms (1.00 video frame)
Interleave, preload duration : 504 ms
Writing library : LAME3.98r
Encoding settings : -m s -V 4 -q 0 -lowpass 18.6 -b 192
Скриншоты
Скачать

Скачать торрент!

Как скачивать? · Что такое торрент? · Рейтинг и ограничения

Сайт не распространяет и не хранит электронные версии произведений, а лишь предоставляет доступ к создаваемому пользователями каталогу ссылок на торрент-файлы, которые содержат только списки хеш-сумм

[Профиль] [ЛС]
Показать сообщения:    
Ответить на тему

Текущее время: Сегодня 01:10

Часовой пояс: GMT + 4



Вы не можете начинать темы
Вы не можете отвечать на сообщения
Вы не можете редактировать свои сообщения
Вы не можете удалять свои сообщения
Вы не можете голосовать в опросах
Вы не можете прикреплять файлы к сообщениям
Вы не можете скачивать файлы