Тема (Глеб Панфилов) [1979, драма, мелодрама, комедия, DVDRip]

Ответить на тему
 
Автор Сообщение

user ®

Стаж: 7 лет 7 месяцев

Сообщений: 20008

Пост Пост: #1 от 06-Окт-2015 19:33

[Цитировать]

Тема
Жанр: драма, мелодрама, комедия
Год выпуска: 1979
Продолжительность: 01:33:23

Режиссёр: Глеб Панфилов
В ролях: Михаил Ульянов, Инна Чурикова, Станислав Любшин, Евгений Весник, Евгения Нечаева, Наталья Селезнева, Сергей Никоненко, Вадим Федулов
Описание: В поисках вдохновения и новых тем известный столичный писатель отправляется в провинцию. Неожиданно для себя он обнаруживает, что здесь люди живут совсем иначе, чем в привычном ему мире. Став невольным свидетелем подлинной любовной драмы, герой вдруг понимает, что в его жизни и творчестве не хватает самого главного.
Качество видео: [url=http://***/forum/viewtopic.php?t=4927354]DVDRip[/url]
Формат видео: AVI
Видео: 656x480 (1.37:1), 25 fps, XviD build 73 ~1965 kbps avg, 0.25 bit/pixel
Аудио: 48 kHz, AC3 Dolby Digital, 2/0 (L,R) ch, ~256 kbps


Сравнение
[url=http://***/forum/viewtopic.php?t=3103581]http://***/forum/viewtopic.php?t=3103581[/url]
http://screenshotcomparison.com/comparison/145656
[url=http://***/forum/viewtopic.php?t=1665973]http://***/forum/viewtopic.php?t=1665973[/url]
http://screenshotcomparison.com/comparison/145657
MediaInfo
Общее
Полное имя : H:\Тема.1979.dvdrip_[1.46]_[teko].avi
Формат : AVI
Формат/Информация : Audio Video Interleave
Размер файла : 1,46 Гбайт
Продолжительность : 1 ч. 33 м.
Общий поток : 2232 Кбит/сек
Программа кодирования : VirtualDubMod 1.5.10.3 | www.virtualdub-fr.org || (build 2550/release)
Библиотека кодирования : VirtualDubMod build 2550/release
Видео
Идентификатор : 0
Формат : MPEG-4 Visual
Профиль формата : Advanced Simple@L5
Параметр BVOP формата : 1
Параметр QPel формата : Нет
Параметр GMC формата : Без точки перехода
Параметр матрицы формата : Выборочная
Идентификатор кодека : XVID
Идентификатор кодека/Подсказка : XviD
Продолжительность : 1 ч. 33 м.
Битрейт : 1966 Кбит/сек
Ширина : 656 пикселей
Высота : 480 пикселей
Соотношение сторон : 4:3
Частота кадров : 25,000 кадров/сек
Цветовое пространство : YUV
Субдискретизация насыщенности : 4:2:0
Битовая глубина : 8 бит
Тип развёртки : Прогрессивная
Метод сжатия : С потерями
Бит/(Пиксели*Кадры) : 0.250
Размер потока : 1,28 Гбайт (88%)
Библиотека кодирования : XviD 73
Аудио
Идентификатор : 1
Формат : AC-3
Формат/Информация : Audio Coding 3
Расширение режима : CM (complete main)
Параметр Endianness формата : Big
Идентификатор кодека : 2000
Продолжительность : 1 ч. 33 м.
Вид битрейта : Постоянный
Битрейт : 256 Кбит/сек
Каналы : 2 канала
Расположение каналов : Front: L R
Частота : 48,0 КГц
Битовая глубина : 16 бит
Метод сжатия : С потерями
Размер потока : 171 Мбайт (11%)
Выравнивание : Разделение по промежуткам
Продолжительность промежутка : 40 мс. (1,00 видеокадр)
Время предзагрузки промежутка : 500 мс.
Скриншоты Релиз группы:
[url=http://***/forum/viewtopic.php?t=1677970] [/url]
--
Скачать

Скачать торрент!

Как скачивать? · Что такое торрент? · Рейтинг и ограничения

Сайт не распространяет и не хранит электронные версии произведений, а лишь предоставляет доступ к создаваемому пользователями каталогу ссылок на торрент-файлы, которые содержат только списки хеш-сумм

[Профиль] [ЛС]
Показать сообщения:    
Ответить на тему

Текущее время: Сегодня 19:53

Часовой пояс: GMT + 4



Вы не можете начинать темы
Вы не можете отвечать на сообщения
Вы не можете редактировать свои сообщения
Вы не можете удалять свои сообщения
Вы не можете голосовать в опросах
Вы не можете прикреплять файлы к сообщениям
Вы не можете скачивать файлы