Забери мою душу 2D / My Soul to Take (Уэс Крэйвен / Wes Craven) [2010, США, ужасы, триллер, DVDRip] DUB (лицензия)

Ответить на тему
 
Автор Сообщение

user ®

Стаж: 7 лет 7 месяцев

Сообщений: 20008

Пост Пост: #1 от 05-Дек-2010 00:53

[Цитировать]

Забери мою душу 2D / My Soul to Take
Страна: США
Студия: Corvus Corax Productions, Relativity Media, Rogue
Жанр: ужасы, триллер
Год выпуска: 2010
Продолжительность: 01:42:44
Перевод: Профессиональный (дублированный)
Субтитры: нет
Оригинальная аудиодорожка: нет
Режиссер: Уэс Крэйвен / Wes Craven
В ролях: Макс Тириот, Джон Магаро, Дэнзел Уитакер, Ник Лашэвэй, Эмили Миде, Зена Грэй, Полина Ольсцунски, Джереми Чу, Рауль Эспарза, Джессика Хехт...
Роли дублировали: Артем Семакин, Диомид Виноградов, Дмитрий Курта, Александр Гаврилин, Вероника Саркисова...
Описание: Сонный городишко Ривертон ожидает исполнения пророчества: серийный убийца должен вернуться на место своих преступлений, чтобы убить семерых детей, родившихся в день его смерти. Но действительно ли маньяк мертв? Или зло переселилось в тело неосторожного подростка, которому теперь предстоит завершить страшную миссию?

Бюджет: $25 000 000

Тип релиза: DVDRip, источник: DVD5 R5, предоставленный группой
Контейнер: AVI
Видео: 720x304 (2.35:1), 25.000 fps, XVID ~1572 kbps avg, 0.287 bit/pixel
Аудио: 48 kHz, AC3, 6 ch, 448.00 kbps Constant

MediaInfo

General
Complete name : Zaberi.moyu.dushu.2D.2010.D.DVDRip.avi
Format : AVI
Format/Info : Audio Video Interleave
File size : 1.46 GiB
Duration : 1h 42mn
Overall bit rate : 2 030 Kbps
Writing application : VirtualDubMod 1.5.10.3 (build 2550/release)
Writing library : VirtualDubMod build 2550/release
Video
ID : 0
Format : MPEG-4 Visual
Format profile : Advanced Simple@L5
Format settings, BVOP : Yes
Format settings, QPel : No
Format settings, GMC : No warppoints
Format settings, Matrix : Custom
Codec ID : XVID
Codec ID/Hint : XviD
Duration : 1h 42mn
Bit rate : 1 572 Kbps
Width : 720 pixels
Height : 304 pixels
Display aspect ratio : 2.35:1
Frame rate : 25.000 fps
Color space : YUV
Chroma subsampling : 4:2:0
Bit depth : 8 bits
Scan type : Progressive
Bits/(Pixel*Frame) : 0.287
Stream size : 1.13 GiB (77%)
Writing library : XviD 1.2.1 (UTC 2008-12-04)
Audio
ID : 1
Format : AC-3
Format/Info : Audio Coding 3
Mode extension : CM (complete main)
Codec ID : 2000
Duration : 1h 42mn
Bit rate mode : Constant
Bit rate : 448 Kbps
Channel(s) : 6 channels
Channel positions : Front: L C R, Side: L R, LFE
Sampling rate : 48.0 KHz
Bit depth : 16 bits
Stream size : 329 MiB (22%)
Alignment : Split accross interleaves
Interleave, duration : 40 ms (1.00 video frame)
Interleave, preload duration : 500 ms

Скриншот с названием

Скриншоты

Скачать

Скачать торрент!

Как скачивать? · Что такое торрент? · Рейтинг и ограничения

Сайт не распространяет и не хранит электронные версии произведений, а лишь предоставляет доступ к создаваемому пользователями каталогу ссылок на торрент-файлы, которые содержат только списки хеш-сумм

[Профиль] [ЛС]
Показать сообщения:    
Ответить на тему

Текущее время: Сегодня 06:23

Часовой пояс: GMT + 4



Вы не можете начинать темы
Вы не можете отвечать на сообщения
Вы не можете редактировать свои сообщения
Вы не можете удалять свои сообщения
Вы не можете голосовать в опросах
Вы не можете прикреплять файлы к сообщениям
Вы не можете скачивать файлы