Лавровый каньон / Лорел каньон / Laurel Canyon (Лиза Холоденко / Lisa Cholodenko) [2002, США, драма, музыка, WEB-DL 720p] DVO + MVO + Sub Eng + Original Eng

Ответить на тему
 
Автор Сообщение

user ®

Стаж: 7 лет 7 месяцев

Сообщений: 20008

Пост Пост: #1 от 06-Окт-2015 01:00

[Цитировать]

Лавровый каньон / Лорел каньон / Laurel Canyon
Страна: США
Студия: Sony Pictures Classics, Good Machine, Antidote Films (I)
Жанр: драма, музыка
Год выпуска: 2002
Продолжительность: 01:43:10
Перевод 1: Профессиональный (двухголосый закадровый)
Перевод 2: Профессиональный (многоголосый закадровый)
Cубтитры: английские
Оригинальная аудиодорожка: английский
Режиссер: Лиза Холоденко / Lisa Cholodenko
В ролях: Кейт Бекинсейл, Кристиан Бэйл, Фрэнсис МакДорманд, Наташа МакЭлхоун, Алессандро Нивола, Лу Барлоу, Расселл Поллард, Имаад Васиф, Микки Петралия, Мелисса Де Суза
Описание: Закончив учебу в Гарварде, Сэм и его подруга Алекс отправляются в Лос-Анджелес, чтобы заняться научной работой в доме матери Сэма — Джейн, которая должна быть в отъезде. Но их ждет не очень приятный сюрприз: Джейн дома, более того — она приютила рок-группу, от которой пытается получить новый хит для своей звукозаписывающей компании. Вольный нрав Джейн и ее отвязной тусовки смущает и раздражает «правильного» Сэма, а вскоре его жизнь и вовсе превращается в хаос, когда он замечает, что Алекс больше нравится компания Джейн и шумные вечеринки, чем ее диссертация о жизни насекомых…
II Сэмпл II IMDB II
Доп. информация:
За двухголосый перевод спасибо snegsneg (дутая шестиканалка понижена до двух каналов)
За многоголоску спасибо Nevostix
Тип релиза: WEB-DL 720p
Контейнер: MKV
Видео: AVC / 1280x718 / 16:9 / 23.976fps / Bit rate 3970Kbps
Аудио 1: AC3 / 48.0 KHz / 2ch. / 192kbps / rus / dvo
Аудио 2: AC3 / 48.0 KHz / 2ch. / 192kbps / rus / mvo
Аудио 3: AC3 / 48.0 KHz / 6ch. / 384kbps / eng
Формат субтитров: softsub (SRT)
MediaInfo
Общее
Уникальный идентификатор : 172512529293079828326340640747202634568 (0x81C8B4605259E718B8C97E901AE16348)
Полное имя : G:\!!!_torrent\Laurel.Canyon.2002.WEB-DL.720p._by_vedigo.mkv
Формат : Matroska
Версия формата : Version 4 / Version 2
Размер файла : 3,48 Гбайт
Продолжительность : 1 ч. 43 м.
Общий поток : 4835 Кбит/сек
Название фильма : Laurel.Canyon.2002.WEB-DL.720p._by_vedigo
Дата кодирования : UTC 2015-10-05 07:55:23
Программа кодирования : mkvmerge v8.4.0 ('A better way to fly') 64bit
Библиотека кодирования : libebml v1.3.1 + libmatroska v1.4.2
DURATION : 01:41:49.631000000
NUMBER_OF_FRAMES : 1699
NUMBER_OF_BYTES : 47722
_STATISTICS_WRITING_APP : mkvmerge v8.4.0 ('A better way to fly') 64bit
_STATISTICS_WRITING_DATE_UTC : 2015-10-05 07:55:23
_STATISTICS_TAGS : BPS DURATION NUMBER_OF_FRAMES NUMBER_OF_BYTES
Видео
Идентификатор : 1
Формат : AVC
Формат/Информация : Advanced Video Codec
Профиль формата : High@L3.1
Параметр CABAC формата : Нет
Параметр ReFrames формата : 2 кадра
Параметр GOP формата : N=1
Идентификатор кодека : V_MPEG4/ISO/AVC
Продолжительность : 1 ч. 43 м.
Битрейт : 3970 Кбит/сек
Ширина : 1280 пикселей
Высота : 718 пикселей
Соотношение сторон : 16:9
Режим частоты кадров : Постоянный
Частота кадров : 23,976 кадра/сек
Цветовое пространство : YUV
Субдискретизация насыщенности : 4:2:0
Битовая глубина : 8 бит
Тип развёртки : Прогрессивная
Бит/(Пиксели*Кадры) : 0.180
Размер потока : 2,86 Гбайт (82%)
Заголовок : Laurel.Canyon.2002.WEB-DL.720p._by_vedigo
Язык : English
Default : Да
Forced : Нет
Цветовой диапазон : Limited
Основные цвета : BT.709
Характеристики трансфера : BT.709
Коэффициенты матрицы : BT.709
Аудио #1
Идентификатор : 2
Формат : AC-3
Формат/Информация : Audio Coding 3
Расширение режима : CM (complete main)
Параметр Endianness формата : Big
Идентификатор кодека : A_AC3
Продолжительность : 1 ч. 43 м.
Вид битрейта : Постоянный
Битрейт : 192 Кбит/сек
Каналы : 2 канала
Расположение каналов : Front: L R
Частота : 48,0 КГц
Метод сжатия : С потерями
Размер потока : 142 Мбайт (4%)
Заголовок : DVO
Язык : Russian
Default : Да
Forced : Нет
Аудио #2
Идентификатор : 3
Формат : AC-3
Формат/Информация : Audio Coding 3
Расширение режима : CM (complete main)
Параметр Endianness формата : Big
Идентификатор кодека : A_AC3
Продолжительность : 1 ч. 43 м.
Вид битрейта : Постоянный
Битрейт : 192 Кбит/сек
Каналы : 2 канала
Расположение каналов : Front: L R
Частота : 48,0 КГц
Метод сжатия : С потерями
Размер потока : 142 Мбайт (4%)
Заголовок : MVO
Язык : Russian
Default : Нет
Forced : Нет
Аудио #3
Идентификатор : 4
Формат : AC-3
Формат/Информация : Audio Coding 3
Расширение режима : CM (complete main)
Параметр Endianness формата : Big
Идентификатор кодека : A_AC3
Продолжительность : 1 ч. 43 м.
Вид битрейта : Постоянный
Битрейт : 384 Кбит/сек
Каналы : 6 каналов
Расположение каналов : Front: L C R, Side: L R, LFE
Частота : 48,0 КГц
Метод сжатия : С потерями
Размер потока : 283 Мбайт (8%)
Заголовок : Laurel.Canyon.2002.720p.WEB-DL.DD5.1.H264-FGT
Язык : English
Default : Нет
Forced : Нет
Текст
Идентификатор : 5
Формат : UTF-8
Идентификатор кодека : S_TEXT/UTF8
Идентификатор кодека/Информация : UTF-8 Plain Text
Заголовок : subtitle eng
Язык : English
Default : Нет
Forced : Нет
Меню
00:00:00.000 : en:Start
00:09:33.000 : en:Jane
00:16:09.000 : en:Deep Connections
00:20:49.000 : en:Sara
00:21:39.000 : en:The Sex Life of Flies
00:27:11.000 : en:"You Almost Killed Me."
00:30:08.000 : en:Three's Company
00:33:41.000 : en:Wyatt
00:36:04.000 : en:"Someday, I Will Treat You Good."
00:40:57.000 : en:Status Report
00:42:58.000 : en:Gloria
00:45:59.000 : en:"Let's Stay Here a Little Longer."
00:46:43.000 : en:A Mutual Problem
00:47:46.000 : en:Alex's Critique
00:50:25.000 : en:Anything But a Loser
00:53:35.000 : en:Keeping Ian in His Place
00:55:20.000 : en:"Alex Likes Your Scene"
01:02:23.000 : en:Water Sports
01:05:35.000 : en:Sublimation
01:09:57.000 : en:Wyatt's Mother
01:10:44.000 : en:Ian the Diplomat
01:13:57.000 : en:"Shade and Honey."
01:16:59.000 : en:"I'm Attracted to You."
01:26:12.000 : en:Alex Provides the Entertainment
01:28:34.000 : en:Fault Lines
01:32:41.000 : en:"You Helped Open Me Up."
01:33:59.000 : en:The Bottom Line
01:35:47.000 : en:Taking a Mental Health Day
Скриншоты
Скачать

Скачать торрент!

Как скачивать? · Что такое торрент? · Рейтинг и ограничения

Сайт не распространяет и не хранит электронные версии произведений, а лишь предоставляет доступ к создаваемому пользователями каталогу ссылок на торрент-файлы, которые содержат только списки хеш-сумм

[Профиль] [ЛС]
Показать сообщения:    
Ответить на тему

Текущее время: Сегодня 07:58

Часовой пояс: GMT + 4



Вы не можете начинать темы
Вы не можете отвечать на сообщения
Вы не можете редактировать свои сообщения
Вы не можете удалять свои сообщения
Вы не можете голосовать в опросах
Вы не можете прикреплять файлы к сообщениям
Вы не можете скачивать файлы