Старый храм / Purana Mandir (Шиам Рамсей / Shyam Ramsay, Тульси Рамсей / Tulsi Ramsay) [1984, Индия, Ужасы, триллер, детектив, DVDRip] VO (Юлия Семыкина) + Sub Rus (на песни)

Ответить на тему
 
Автор Сообщение

user ®

Стаж: 12 лет

Сообщений: 15092

Пост Пост: #1 от 05-Окт-2015 21:54

[Цитировать]

Старый храм / Purana Mandir
Страна: Индия
Жанр: Ужасы, триллер, детектив
Год выпуска: 1984
Продолжительность: 02:24:07
Перевод: Одноголосый закадровый Юлия Семыкина
Cубтитры: русские (только на тексты песен)
Режиссеры: Шиам Рамсей / Shyam Ramsay, Тульси Рамсей / Tulsi Ramsay
В ролях: Мохниш Бехл, Арти Гупта, Пунит Иссар, Садашив Амрапуркар, Эджей Агарвал, Садхана Кхоте, Сатиш Шах, Трилок Капур, Рахендра Нат
Описание: Суман, богатая наследница королевского рода, живет вместе с отцом в достатке и роскоши. Она влюбляется в парня по имени Санджай. Молодые люди хотят пожениться. Но отец Суман решительно настроен против их брака. После безуспешных попыток разлучить влюбленных отец Суман рассказывает им о проклятии, преследующем всех женщин в их роду. При рождении первого ребенка все они погибают в страшных муках. Но влюбленные решают отправиться в те края, где было положено начало этому проклятию, что бы узнать истину.
Доп. информация:
Озвучка: Юлия Семыкина (Спасибо!)
Перевод субтитров, материалы: larisa_k (Спасибо!)
Рип: soso4eg (Спасибо!)
Сэмпл: http://multi-up.com/1069565
Качество видео: DVDRip
Формат видео: AVI
Видео: XviD build 50, 640x480 (1.33:1), 23.976 fps, 1237 kbps avg
Аудио: MPEG Layer 3, 44.100 kHz, 2/0 (L,R) ch, 192.00 kbps
MediaInfo
General
Complete name : F:\Staryj.Hram.1984.DVDRip.XviD.BwTorrents\Staryj.Hram.1984.DVDRip.XviD.BwTorrents.avi
Format : AVI
Format/Info : Audio Video Interleave
File size : 1.45 GiB
Duration : 2h 24mn
Overall bit rate : 1 439 Kbps
Writing library : VirtualDub build 35491/release
Video
ID : 0
Format : MPEG-4 Visual
Format profile : AdvancedSimple@L5
Format settings, BVOP : Yes
Format settings, QPel : No
Format settings, GMC : No warppoints
Format settings, Matrix : Default (H.263)
Codec ID : XVID
Codec ID/Hint : XviD
Duration : 2h 24mn
Bit rate : 1 238 Kbps
Width : 640 pixels
Height : 480 pixels
Display aspect ratio : 4/3
Frame rate : 23.976 fps
Resolution : 24 bits
Colorimetry : 4:2:0
Scan type : Progressive
Bits/(Pixel*Frame) : 0.168
Stream size : 1.25 GiB (86%)
Writing library : XviD 1.2.1 (UTC 2008-12-04)
Audio
ID : 1
Format : MPEG Audio
Format version : Version 1
Format profile : Layer 3
Codec ID : 55
Codec ID/Hint : MP3
Duration : 2h 24mn
Bit rate mode : Constant
Bit rate : 192 Kbps
Channel(s) : 2 channels
Sampling rate : 44.1 KHz
Resolution : 16 bits
Stream size : 198 MiB (13%)
Alignment : Split accross interleaves
Interleave, duration : 42 ms (1.00 video frame)
Interleave, preload duration : 500 ms
Writing library : LAME3.98.2
Скриншоты
Скачать

Скачать торрент! Старый храм / Purana Mandir (Шиам Рамсей / Shyam Ramsay, Тульси Рамсей / Tulsi Ramsay) [1984, Индия, Ужасы, триллер, детектив, DVDRip] VO (Юлия Семыкина) + Sub Rus (на песни)

Как скачивать? · Что такое торрент? · Рейтинг и ограничения

Сайт не распространяет и не хранит электронные версии произведений, а лишь предоставляет доступ к создаваемому пользователями каталогу ссылок на торрент-файлы, которые содержат только списки хеш-сумм

[Профиль] [ЛС]
Показать сообщения:    
Ответить на тему

Текущее время: Сегодня 06:57

Часовой пояс: GMT + 4



Вы не можете начинать темы
Вы не можете отвечать на сообщения
Вы не можете редактировать свои сообщения
Вы не можете удалять свои сообщения
Вы не можете голосовать в опросах
Вы не можете прикреплять файлы к сообщениям
Вы не можете скачивать файлы