Любовь на четырех колесах (Сергей Влади) [2015, Россия, мелодрама, HDTVRip]

Ответить на тему
 
Автор Сообщение

user ®

Стаж: 7 лет 7 месяцев

Сообщений: 20008

Пост Пост: #1 от 05-Окт-2015 21:54

[Цитировать]

Любовь на четырех колесахСтрана: Россия
Год выхода: 2015
Жанр: мелодрама
Продолжительность: 01:34:50
Режиссер: Сергей Влади
В ролях: Евгения Лоза, Виктор Логинов, Кирилл Жандаров, Светлана Колпакова, Александр Никольский, Екатерина Большакова
Семейная жизнь Липы, работницы таксопарка, не задалась. Муж Костя давно потерял интерес к «рабочей пчелке» и почти не скрывает своих измен. Последней каплей становится известие о том, что любовница Кости ждет ребенка. Липа отпускает мужа и готовится начать новую жизнь. К несчастью, после развода Костя возвращается снова. Помыкавшись по съёмным квартирам, он намерен поселиться у Липы в квартире вместе со своей любовницей. Удастся ли доброй Липе противостоять людской подлости и отыскать своё заблудившееся счастье?
Качество видео: HDTVRip
Формат видео: MP4
Видео: XviD (1.2.2) 900kbps 640x360 25.000fps
Аудио: MP3 128kbps 2ch 16bit 48000khz
MediaInfo
Video
ID : 1
Format : MPEG-4 Visual
Format profile : Advanced Simple@L5
Format settings, BVOP : Yes
Format settings, QPel : No
Format settings, GMC : No warppoints
Format settings, Matrix : Default (MPEG)
Codec ID : V_MS/VFW/FOURCC / DX50
Codec ID/Hint : DivX 5
Duration : 1h 34mn
Bit rate : 881 Kbps
Width : 640 pixels
Height : 360 pixels
Display aspect ratio : 16:9
Frame rate mode : Constant
Frame rate : 25.000 fps
Color space : YUV
Chroma subsampling : 4:2:0
Bit depth : 8 bits
Scan type : Progressive
Compression mode : Lossy
Bits/(Pixel*Frame) : 0.153
Stream size : 597 MiB (86%)
Writing library : XviD 1.2.1 (UTC 2008-12-04)
Default : Yes
Forced : No
Audio
ID : 2
Format : MPEG Audio
Format version : Version 1
Format profile : Layer 3
Muxing mode : Header stripping
Codec ID : A_MPEG/L3
Codec ID/Hint : MP3
Duration : 1h 34mn
Bit rate mode : Constant
Bit rate : 128 Kbps
Channel(s) : 2 channels
Sampling rate : 48.0 KHz
Compression mode : Lossy
Stream size : 86.8 MiB (12%)
Writing library : LAME3.99r
Encoding settings : -m s -V 4 -q 2 -lowpass 17 -b 128
Default : Yes
Forced : No
Скриншот c названием фильма Скриншоты
Скачать

Скачать торрент!

Как скачивать? · Что такое торрент? · Рейтинг и ограничения

Сайт не распространяет и не хранит электронные версии произведений, а лишь предоставляет доступ к создаваемому пользователями каталогу ссылок на торрент-файлы, которые содержат только списки хеш-сумм

[Профиль] [ЛС]
Показать сообщения:    
Ответить на тему

Текущее время: Сегодня 06:29

Часовой пояс: GMT + 4



Вы не можете начинать темы
Вы не можете отвечать на сообщения
Вы не можете редактировать свои сообщения
Вы не можете удалять свои сообщения
Вы не можете голосовать в опросах
Вы не можете прикреплять файлы к сообщениям
Вы не можете скачивать файлы