Комната / The Room (Томми Вайсо / Tommy Wiseau) [2003, США, драма, BDRip 720p] VO (Ze6ypo) + Original (Eng) + Sub (Rus, Eng)

Ответить на тему
 
Автор Сообщение

user ®

Стаж: 7 лет 7 месяцев

Сообщений: 20008

Пост Пост: #1 от 05-Окт-2015 03:18

[Цитировать]

Комната / The Room
Год выпуска: 2003
Страна: США
Жанр: триллер, драма
Продолжительность: 01:39:52
Перевод: одноголосный закадровый (Ze6ypo)
Cубтитры: русские, английские
Оригинальная аудиодорожка: английская
Оглавление: 42 англоязычных главы
Режиссёр: Томми Вайсо /Tommy Wiseau/
В ролях: Томми Вайсо /Tommy Wiseau/, Джульетт Даниэль /Juliette Danielle/, Грег Сестеро /Greg Sestero/, Филип Халдиман /Philip Haldiman/, Кэролин Миннотт /Carolyn Minnott/, Робин Пэрис /Robyn Paris/, Майк Холмс /Scott Holmes/, Дэн Джанджиджиан /Dan Janjigian/
Описание:
У Джонни есть всё — отличная работа, квартира в Сан-Франциско, лучший друг Марк и невеста Лиза, и близится его день рождения. Но все меняется, когда Марк и Лиза заводят роман…
Дополнительная информация:
IMDB User Rating→: 3.5/10 (25,905 votes)
Рейтинг фильма КиноПоиск.Ru→: 3.441 (1176 голосов)
  • В русских субтитрах присутствует ненормативная лексика.
    Качество: BDRip (by DON)
    Контейнер: MKV
    Видеопоток: 1280x720p, 23.976 fps, x264 ~7490 kbps
    Аудиопоток №1 (RUS): DD 2.0, 48 kHz, 192 kbps | одноголосный закадровый (Ze6ypo)
    Аудиопоток №2 (ENG): DD 5.1, 48 kHz, 448 kbps
    Субтитры №1 (RUS): SRT/UTF8
    Субтитры №2 (ENG): SRT/UTF8 | SDH
    Сэмпл: Яндекс.Диск→, nekaka→, sendspace→
    MediaInfo
General
Unique ID                                : 183493101765839930740300312406005876425 (0x8A0B7C65C5E2849D80C20D9696EF86C9)
Complete name                            : The.Room.2003.720p.BDRip.x264.DD.SRT-DON.mkv
Format                                   : Matroska
Format version                           : Version 4 / Version 2
File size                                : 5.67 GiB
Duration                                 : 1h 39mn
Overall bit rate                         : 8 132 Kbps
Movie name                               : The Room (2003) 720p BDRip by DON
Encoded date                             : UTC 2015-10-03 07:46:05
Writing application                      : mkvmerge v7.8.0 ('River Man') 64bit built on Mar 27 2015 16:31:37
Writing library                          : libebml v1.3.1 + libmatroska v1.4.2
DURATION                                 : 01:39:41.088000000
NUMBER_OF_FRAMES                         : 186909
NUMBER_OF_BYTES                          : 143546112
_STATISTICS_WRITING_APP                  : mkvmerge v7.8.0 ('River Man') 64bit built on Mar 27 2015 16:31:37
_STATISTICS_WRITING_DATE_UTC             : 2015-10-03 07:46:05
_STATISTICS_TAGS                         : BPS DURATION NUMBER_OF_FRAMES NUMBER_OF_BYTES
Video
ID                                       : 1
Format                                   : AVC
Format/Info                              : Advanced Video Codec
Format profile                           : High@L4.1
Format settings, CABAC                   : Yes
Format settings, ReFrames                : 9 frames
Codec ID                                 : V_MPEG4/ISO/AVC
Duration                                 : 1h 39mn
Bit rate                                 : 7 330 Kbps
Width                                    : 1 280 pixels
Height                                   : 720 pixels
Display aspect ratio                     : 16:9
Frame rate mode                          : Constant
Frame rate                               : 23.976 fps
Color space                              : YUV
Chroma subsampling                       : 4:2:0
Bit depth                                : 8 bits
Scan type                                : Progressive
Bits/(Pixel*Frame)                       : 0.332
Stream size                              : 5.11 GiB (90%)
Title                                    : 1280x720, 23.976 fps, x264 ~7490 kbps
Writing library                          : x264 core 140 r2377+40 929f149 tMod [8-bit@4:2:0 X86]
Encoding settings                        : cabac=1 / ref=9 / deblock=1:-3:-3 / analyse=0x3:0x113 / me=tesa / subme=10 / psy=1 / fade_compensate=0.00 / psy_rd=1.10:0.00 / mixed_ref=1 / me_range=24 / chroma_me=1 / trellis=2 / 8x8dct=1 / cqm=0 / deadzone=21,11 / fast_pskip=0 / chroma_qp_offset=-2 / threads=12 / lookahead_threads=2 / sliced_threads=0 / nr=0 / decimate=0 / interlaced=0 / bluray_compat=0 / constrained_intra=0 / fgo=0 / bframes=9 / b_pyramid=2 / b_adapt=2 / b_bias=0 / direct=3 / weightb=1 / open_gop=0 / weightp=2 / keyint=250 / keyint_min=23 / scenecut=40 / intra_refresh=0 / rc=crf / mbtree=0 / crf=18.5000 / qcomp=0.70 / qpmin=0:0:0 / qpmax=69:69:69 / qpstep=4 / ip_ratio=1.30 / pb_ratio=1.10 / aq=4:0.90 / aq-sensitivity=10.00 / aq-factor=1.00:1.00:1.00 / aq2=0 / aq3=0
Language                                 : English
Default                                  : Yes
Forced                                   : No
DURATION                                 : 01:39:51.736000000
NUMBER_OF_FRAMES                         : 143658
NUMBER_OF_BYTES                          : 5609889440
_STATISTICS_WRITING_APP                  : mkvmerge v7.8.0 ('River Man') 64bit built on Mar 27 2015 16:31:37
_STATISTICS_WRITING_DATE_UTC             : 2015-10-03 07:46:05
_STATISTICS_TAGS                         : BPS DURATION NUMBER_OF_FRAMES NUMBER_OF_BYTES
Audio #1
ID                                       : 2
Format                                   : AC-3
Format/Info                              : Audio Coding 3
Mode extension                           : CM (complete main)
Format settings, Endianness              : Big
Codec ID                                 : A_AC3
Duration                                 : 1h 39mn
Bit rate mode                            : Constant
Bit rate                                 : 192 Kbps
Channel(s)                               : 2 channels
Channel positions                        : Front: L R
Sampling rate                            : 48.0 KHz
Bit depth                                : 16 bits
Compression mode                         : Lossy
Stream size                              : 137 MiB (2%)
Title                                    : RUS VO Ze6ypo DD 2.0, 48 kHz, 192 kbps
Language                                 : Russian
Default                                  : Yes
Forced                                   : No
Audio #2
ID                                       : 3
Format                                   : AC-3
Format/Info                              : Audio Coding 3
Mode extension                           : CM (complete main)
Format settings, Endianness              : Big
Codec ID                                 : A_AC3
Duration                                 : 1h 39mn
Bit rate mode                            : Constant
Bit rate                                 : 448 Kbps
Channel(s)                               : 6 channels
Channel positions                        : Front: L C R, Side: L R, LFE
Sampling rate                            : 48.0 KHz
Bit depth                                : 16 bits
Compression mode                         : Lossy
Stream size                              : 320 MiB (6%)
Title                                    : ENG DD 5.1, 48 kHz, 448 kbps
Language                                 : English
Default                                  : No
Forced                                   : No
Text #1
ID                                       : 4
Format                                   : UTF-8
Codec ID                                 : S_TEXT/UTF8
Codec ID/Info                            : UTF-8 Plain Text
Title                                    : RUS SRT
Language                                 : Russian
Default                                  : No
Forced                                   : No
Text #2
ID                                       : 5
Format                                   : UTF-8
Codec ID                                 : S_TEXT/UTF8
Codec ID/Info                            : UTF-8 Plain Text
Title                                    : ENG SDH SRT
Language                                 : English
Default                                  : No
Forced                                   : No
Menu
00:00:00.000                             : en:Main Titles
00:02:58.553                             : en:Lady In Red
00:04:07.497                             : en:Denny Wants To Watch
00:05:18.610                             : en:Johnny and Lisa's Love Scene
00:09:04.043                             : en:Johnny Wakes Up
00:10:05.688                             : en:Like Mother Like Daughter
00:12:28.873                             : en:Lisa Calls Mark
00:13:45.033                             : en:Seduction
00:20:32.189                             : en:Flower Shop
00:21:17.151                             : en:Lisa Orders Pizza
00:21:37.630                             : en:Denny Wants A Kiss
00:22:19.797                             : en:Dozen of Red Roses
00:23:52.848                             : en:I'm Tired, I'm Wasted
00:27:13.757                             : en:Cancer
00:29:26.473                             : en:Chocolate Is A Symbol of Love
00:31:11.495                             : en:Grand Central Station
00:33:35.805                             : en:Chris-R
00:37:15.191                             : en:I Just Saw You
00:38:03.239                             : en:"I Did Not Hit Her, I Did Not!"
00:42:40.183                             : en:Girl Talk
00:44:31.127                             : en:"You're Tearing Me Apart, Lisa!"
00:46:57.690                             : en:Underwear
00:49:09.572                             : en:Johnny Eavesdrops
00:50:17.932                             : en:"I'll Record Everything"
00:51:42.141                             : en:Love Is Blind
00:56:36.602                             : en:Lisa and Denny
00:57:55.263                             : en:Mark and Peter's Fight
01:00:58.780                             : en:Cheep Cheep Cheep
01:01:55.503                             : en:Football in Tuxedos
01:02:48.932                             : en:Coffee Shop
01:04:40.293                             : en:Lisa and Mark Love Scene
01:07:41.557                             : en:Golden Gate Park
01:09:01.721                             : en:X Y Z
01:12:46.862                             : en:That's the Idea
01:14:04.398                             : en:Mother Advises Daughter
01:16:26.540                             : en:Johnny's Suprise Party
01:21:07.696                             : en:"We're Expecting!"
01:23:43.018                             : en:Fight at the Party
01:24:51.128                             : en:Betrayal
01:26:27.682                             : en:"We'll See About That."
01:30:59.579                             : en:Rage
01:37:02.608                             : en:End Credits
Скриншоты Source vs. DON
Скачать

Скачать торрент!

Как скачивать? · Что такое торрент? · Рейтинг и ограничения

Сайт не распространяет и не хранит электронные версии произведений, а лишь предоставляет доступ к создаваемому пользователями каталогу ссылок на торрент-файлы, которые содержат только списки хеш-сумм

[Профиль] [ЛС]
Показать сообщения:    
Ответить на тему

Текущее время: Сегодня 20:33

Часовой пояс: GMT + 4



Вы не можете начинать темы
Вы не можете отвечать на сообщения
Вы не можете редактировать свои сообщения
Вы не можете удалять свои сообщения
Вы не можете голосовать в опросах
Вы не можете прикреплять файлы к сообщениям
Вы не можете скачивать файлы