Антураж / Entourage (Даг Эллин / Doug Ellin) [2015, США, комедия, BDRip-AVC] Dub (CEE) + Ukr Dub + Original Eng + subs (full pack)

Ответить на тему
 
Автор Сообщение

user ®

Стаж: 7 лет 7 месяцев

Сообщений: 20008

Пост Пост: #1 от 05-Окт-2015 03:18

[Цитировать]

Антураж / Entourage- Год выпуска: 2015
Страна: США
Жанр: комедия
Продолжительность: 01:44:27
Перевод: Профессиональный (полное дублирование) |Blu-ray CEE|
+ Украинская дублированная звуковая дорожка |iTunes Russia|
+ Оригинальная звуковая дорожка
Субтитры: Русские (форсированные, полные) iTunes, украинские (форсированные, полные) iTunes, английские (SDH-COLORED)-Режиссер: Даг Эллин / Doug Ellin
В ролях: Кевин Коннолли, Эдриан Гренье, Кевин Диллон, Джерри Феррара, Джереми Пивен, Эммануэль Шрики, Хэйли Джоэл Осмент, Ронда Раузи, Рекс Ли, Билли Боб Торнтон
О фильме: Звезда кино Винс Чейз и его друзья бросают вызов капризному и зачастую жестокому миру Голливуда.-Релиз:
Автор: MOSFET
Качество: BDRip-AVC (источник: / Blu-ray / 1080p)
Формат: MKV
Видео: 1152x480 (2,40:1), 23.976 fps, x264@L4, 2pass, ~4500 kbps avg, 0.339 bit/pixel
Аудио #1: 48 kHz, AC3 Dolby Digital, 3/2 (L,C,R,l,r) + LFE ch, ~448.00 kbps avg rus
Аудио #2: 48 kHz, AC3 Dolby Digital, 2/0 (L,R), ~192.00 kbps avg ukr
Аудио #3: 48 kHz, AC3 Dolby Digital, 3/2 (L,C,R,l,r) + LFE ch, ~448.00 kbps avg eng
Скачать: Семпл-

Кадры из фильма
-
x264 log
x264 [info]: frame I:1436 Avg QP:16.55 size:111414
x264 [info]: frame P:35862 Avg QP:19.18 size: 42296
x264 [info]: frame B:112972 Avg QP:21.25 size: 16342
x264 [info]: consecutive B-frames: 2.9% 5.3% 7.7% 31.3% 16.1% 25.1% 5.2% 3.9% 1.1% 0.6% 0.4% 0.5%
x264 [info]: ref P L0: 43.6% 12.9% 16.4% 5.6% 5.0% 3.2% 3.2% 1.6% 1.7% 1.2% 1.3% 1.0% 1.3% 1.6% 0.1% 0.0%
x264 [info]: ref B L0: 72.4% 11.3% 5.2% 2.9% 2.0% 1.7% 1.3% 0.9% 0.7% 0.6% 0.5% 0.3% 0.2%
x264 [info]: ref B L1: 93.4% 6.6%

-
Mi
Формат : Matroska
Версия формата : Version 4 / Version 2
Размер файла : 4,08 Гбайт
Продолжительность : 1 ч. 44 м.
Общий поток : 5587 Кбит/сек
Дата кодирования : UTC 2015-10-03 15:16:44
Программа кодирования : mkvmerge v7.8.0 ('River Man') 32bit built on Mar 27 2015 16:18:02
Библиотека кодирования : libebml v1.3.1 + libmatroska v1.4.2
DURATION : 01:43:08.568000000
NUMBER_OF_FRAMES : 1940
NUMBER_OF_BYTES : 87827
Видео
Идентификатор : 1
Формат : AVC
Формат/Информация : Advanced Video Codec
Профиль формата : High@L4
Параметр CABAC формата : Да
Параметр ReFrames формата : 14 кадров
Идентификатор кодека : V_MPEG4/ISO/AVC
Продолжительность : 1 ч. 44 м.
Битрейт : 4500 Кбит/сек
Ширина : 1152 пикселя
Высота : 480 пикселей
Соотношение сторон : 2,40:1
Режим частоты кадров : Постоянный
Частота кадров : 23,976 кадра/сек
Цветовое пространство : YUV
Субдискретизация насыщенности : 4:2:0
Битовая глубина : 8 бит
Тип развёртки : Прогрессивная
Бит/(Пиксели*Кадры) : 0.339
Размер потока : 3,20 Гбайт (79%)
Заголовок : Антураж / Entourage (2015) BDRip-AVC by MOSFET | HQCLUB
Библиотека кодирования : x264 core 148 r2597kMod e86f3a1
Настройки программы : cabac=1 / ref=14 / deblock=1:-2:-2 / analyse=0x3:0x113 / me=umh / subme=10 / psy=1 / fade_compensate=0.00 / psy_rd=1.00:0.00 / mixed_ref=1 / me_range=48 / chroma_me=1 / trellis=2 / 8x8dct=1 / cqm=0 / deadzone=21,11 / fast_pskip=0 / chroma_qp_offset=-2 / threads=12 / lookahead_threads=3 / sliced_threads=0 / nr=0 / decimate=1 / interlaced=0 / bluray_compat=0 / constrained_intra=0 / fgo=0 / bframes=11 / b_pyramid=2 / b_adapt=2 / b_bias=0 / direct=3 / weightb=1 / open_gop=0 / weightp=2 / keyint=240 / keyint_min=23 / scenecut=40 / intra_refresh=0 / rc_lookahead=100 / rc=2pass / mbtree=0 / bitrate=4500 / ratetol=1.0 / qcomp=0.70 / qpmin=0 / qpmax=69 / qpstep=4 / cplxblur=20.0 / qblur=0.5 / vbv_maxrate=20000 / vbv_bufsize=25000 / nal_hrd=none / filler=0 / ip_ratio=1.40 / pb_ratio=1.30 / aq=2:1.00
Язык : English
Default : Да
Forced : Нет
DURATION : 01:44:27.512000000
NUMBER_OF_FRAMES : 150270
NUMBER_OF_BYTES : 3523000846
Аудио #1
Идентификатор : 2
Формат : AC-3
Формат/Информация : Audio Coding 3
Расширение режима : CM (complete main)
Параметр Endianness формата : Big
Идентификатор кодека : A_AC3
Продолжительность : 1 ч. 44 м.
Вид битрейта : Постоянный
Битрейт : 448 Кбит/сек
Каналы : 6 каналов
Расположение каналов : Front: L C R, Side: L R, LFE
Частота : 48,0 КГц
Метод сжатия : С потерями
Размер потока : 335 Мбайт (8%)
Заголовок : Профессиональный (полное дублирование) Blu-ray CEE
Язык : Russian
Default : Да
Forced : Нет
Аудио #2
Идентификатор : 3
Формат : AC-3
Формат/Информация : Audio Coding 3
Расширение режима : CM (complete main)
Параметр Endianness формата : Big
Идентификатор кодека : A_AC3
Продолжительность : 1 ч. 44 м.
Вид битрейта : Постоянный
Битрейт : 192 Кбит/сек
Каналы : 2 канала
Расположение каналов : Front: L R
Частота : 48,0 КГц
Метод сжатия : С потерями
Размер потока : 143 Мбайт (3%)
Заголовок : Украинская дублированная звуковая дорожка |iTunes Russia|
Язык : Ukrainian
Default : Нет
Forced : Нет
Аудио #3
Идентификатор : 4
Формат : AC-3
Формат/Информация : Audio Coding 3
Расширение режима : CM (complete main)
Параметр Endianness формата : Big
Идентификатор кодека : A_AC3
Продолжительность : 1 ч. 44 м.
Вид битрейта : Постоянный
Битрейт : 448 Кбит/сек
Каналы : 6 каналов
Расположение каналов : Front: L C R, Side: L R, LFE
Частота : 48,0 КГц
Метод сжатия : С потерями
Размер потока : 335 Мбайт (8%)
Заголовок : Оригинальная звуковая дорожка
Язык : English
Default : Нет
Forced : Нет
Текст #1
Идентификатор : 5
Формат : UTF-8
Идентификатор кодека : S_TEXT/UTF8
Идентификатор кодека/Информация : UTF-8 Plain Text
Заголовок : Русские (форсированные) iTunes
Язык : Russian
Default : Да
Forced : Нет
Текст #2
Идентификатор : 6
Формат : UTF-8
Идентификатор кодека : S_TEXT/UTF8
Идентификатор кодека/Информация : UTF-8 Plain Text
Заголовок : Русские (полные) iTunes
Язык : Russian
Default : Нет
Forced : Нет
Текст #3
Идентификатор : 7
Формат : UTF-8
Идентификатор кодека : S_TEXT/UTF8
Идентификатор кодека/Информация : UTF-8 Plain Text
Заголовок : Украинские (форсированные) iTunes
Язык : Ukrainian
Default : Нет
Forced : Нет
Текст #4
Идентификатор : 8
Формат : UTF-8
Идентификатор кодека : S_TEXT/UTF8
Идентификатор кодека/Информация : UTF-8 Plain Text
Заголовок : Украинские (полные) iTunes
Язык : Ukrainian
Default : Нет
Forced : Нет
Текст #5
Идентификатор : 9
Формат : UTF-8
Идентификатор кодека : S_TEXT/UTF8
Идентификатор кодека/Информация : UTF-8 Plain Text
Заголовок : Английские (SDH-COLORED)
Язык : English
Default : Нет
Forced : Нет
Меню
00:00:00.000 : en:00:00:00.000
00:10:33.258 : en:00:10:33.258
00:19:34.382 : en:00:19:34.382
00:29:54.167 : en:00:29:54.167
00:40:42.023 : en:00:40:42.023
00:50:23.145 : en:00:50:23.145
01:00:27.082 : en:01:00:27.082
01:09:51.062 : en:01:09:51.062
01:20:17.396 : en:01:20:17.396
01:30:42.228 : en:01:30:42.228
01:37:08.322 : en:01:37:08.322
-
Скачать

Скачать торрент!

Как скачивать? · Что такое торрент? · Рейтинг и ограничения

Сайт не распространяет и не хранит электронные версии произведений, а лишь предоставляет доступ к создаваемому пользователями каталогу ссылок на торрент-файлы, которые содержат только списки хеш-сумм

[Профиль] [ЛС]
Показать сообщения:    
Ответить на тему

Текущее время: Сегодня 20:12

Часовой пояс: GMT + 4



Вы не можете начинать темы
Вы не можете отвечать на сообщения
Вы не можете редактировать свои сообщения
Вы не можете удалять свои сообщения
Вы не можете голосовать в опросах
Вы не можете прикреплять файлы к сообщениям
Вы не можете скачивать файлы