Мне нужна только любовь / Dil Hai Tumhaara (Кундан Шах / Kundan Shah) [2002, Индия, Драма, мелодрама, WEB-DLRip] MVO

Ответить на тему
 
Автор Сообщение

user ®

Стаж: 12 лет

Сообщений: 15092

Пост Пост: #1 от 05-Окт-2015 00:12

[Цитировать]

Мне нужна только любовь / Dil Hai Tumhaara
Страна: Индия
Жанр: Драма, мелодрама
Год выпуска: 2002
Продолжительность: 02:59:59
Перевод: Профессиональный (многоголосый закадровый)
Cубтитры: нет
Режиссер: Кундан Шах / Kundan Shah
В ролях: Прити Зинта, Рекха, Махима Чаудхари, Арджун Рампал, Джимми Шергилл, Алок Натх, Дилип Джоши, Вивек Шак
Описание: Выросшая вместе со старшей сестрой в атмосфере любви и взаимопонимания, Шалу все-таки чувствует некоторую отчужденность матери. Это становится наиболее очевидным, когда они вместе с сестрой влюбляются в одного и того же молодого человека. Мать становится на сторону сестры и категорически требует, чтобы Шалу уступила. В чем же причина такой отчужденности и как теперь решатся проблемы в возникшем любовном треугольнике?
Доп. информация: Исходник WEB-DL (1080p) (СПАСИБО! tarahb)
Сэмпл: http://multi-up.com/1069098
Качество видео: WEB-DLRip
Формат видео: AVI
Видео: XviD build 50, 688x288 (2.39:1), 24 fps, 1026 kbps avg
Аудио: MPEG Layer 3, 48 kHz, 2/0 (L,R) ch, 128.00 kbps
MediaInfo
General
Complete name : F:\Мне нужна только любовь\Mne.nuzhna.tolko.ljubov.2002.WEB-DLRip-Dego.avi
Format : AVI
Format/Info : Audio Video Interleave
File size : 1.46 GiB
Duration : 2h 59mn
Overall bit rate : 1 164 Kbps
Writing application : VirtualDubMod 1.5.10.2 (build 2540/release)
Writing library : VirtualDubMod build 2540/release
Video
ID : 0
Format : MPEG-4 Visual
Format profile : AdvancedSimple@L5
Format settings, BVOP : Yes
Format settings, QPel : No
Format settings, GMC : No warppoints
Format settings, Matrix : Custom
Codec ID : XVID
Codec ID/Hint : XviD
Duration : 2h 59mn
Bit rate : 1 027 Kbps
Width : 688 pixels
Height : 288 pixels
Display aspect ratio : 2.35
Frame rate : 24.000 fps
Resolution : 24 bits
Colorimetry : 4:2:0
Scan type : Progressive
Bits/(Pixel*Frame) : 0.216
Stream size : 1.29 GiB (88%)
Writing library : XviD 1.2.1 (UTC 2008-12-04)
Audio
ID : 1
Format : MPEG Audio
Format version : Version 1
Format profile : Layer 3
Codec ID : 55
Codec ID/Hint : MP3
Duration : 2h 59mn
Bit rate mode : Constant
Bit rate : 128 Kbps
Channel(s) : 2 channels
Sampling rate : 48.0 KHz
Resolution : 16 bits
Stream size : 165 MiB (11%)
Alignment : Aligned on interleaves
Interleave, duration : 42 ms (1.00 video frame)
Interleave, preload duration : 504 ms
Writing library : LAME3.98r
Encoding settings : -m j -V 4 -q 2 -lowpass 17 -b 128
Скриншоты Сравнения
[url=http://***/forum/viewtopic.php?t=180483]http://***/forum/viewtopic.php?t=180483[/url] => http://screenshotcomparison.com/comparison/144965/picture:0
перевод тот же
Скачать

Скачать торрент! Мне нужна только любовь / Dil Hai Tumhaara (Кундан Шах / Kundan Shah) [2002, Индия, Драма, мелодрама, WEB-DLRip] MVO

Как скачивать? · Что такое торрент? · Рейтинг и ограничения

Сайт не распространяет и не хранит электронные версии произведений, а лишь предоставляет доступ к создаваемому пользователями каталогу ссылок на торрент-файлы, которые содержат только списки хеш-сумм

[Профиль] [ЛС]
Показать сообщения:    
Ответить на тему

Текущее время: Сегодня 18:09

Часовой пояс: GMT + 4



Вы не можете начинать темы
Вы не можете отвечать на сообщения
Вы не можете редактировать свои сообщения
Вы не можете удалять свои сообщения
Вы не можете голосовать в опросах
Вы не можете прикреплять файлы к сообщениям
Вы не можете скачивать файлы