Не послать ли нам... гонца? (Валерий Чиков) [1998, Драматическая комедия, приключения, семейный, DVDRip]

Ответить на тему
 
Автор Сообщение

user ®

Стаж: 7 лет 7 месяцев

Сообщений: 20008

Пост Пост: #1 от 05-Окт-2015 00:12

[Цитировать]

Не послать ли нам... гонца?
Жанр: Драматическая комедия, приключения, семейный
Год выпуска: 1998
Продолжительность: 01:39:05
Режиссёр: Валерий Чиков
В ролях: Михаил Евдокимов, Лев Дуров, Саша Комков, Ирина Розанова, Николай Трофимов, Любовь Соколова, Игорь Ясулович, Иван Бортник, Георгий, Гречко, Леонид Якубович и др.
Описание: Разорённый банком фермер Иван, вышедший из себя от такой несправедливости, поехал на своём "Запорожце" в Москву к президенту искать правду. И ещё поговорить с ним о других творящихся вокруг безобразиях, и узнать о том, когда всё это будет пресечено? Вместе с Иваном увязался местный сумасшедший старик Яков. Вместе со стариком Яковом, Ивану в пути предстоит пережить массу разнообразных событий и приключений. Правду Иван естественно не нашёл, результаты поисков были отражёны у него на лице, с ними он и вернулся в родной колхоз...
Качество видео: DVDRip [[url=http://***/forum/viewtopic.php?t=490347]DVD5 ShootNick_RUS[/url]]
Формат видео: AVI
Видео: XviD 65 MPEG-4, 672x512, 4:3, 25.000 fps, ~847 kbps avg, 0.099 bit/pixel
Аудио: MP-3 dual-channel mono, CBR 128 kbps 2 ch, 48.0 KHz MediaInfo
ОбщееПолное имя : V:\Не_послать_ли_нам_гонца_1998_DVDRip_[***].aviФормат : AVIФормат/Информация : Audio Video InterleaveРазмер файла : 698 МбайтПродолжительность : 1 ч. 39 м.Общий поток : 985 Кбит/секПрограмма кодирования : VirtualDubModRus 1.5.10.2 (build 2542/release)Библиотека кодирования : VirtualDubMod build 2542/release
ВидеоИдентификатор : 0Формат : MPEG-4 VisualПрофиль формата : Advanced Simple@L5Параметр BVOP формата : 1Параметр QPel формата : НетПараметр GMC формата : Без точки переходаПараметр матрицы формата : Default (MPEG)Идентификатор кодека : DX50Идентификатор кодека/Подсказка : DivX 5Продолжительность : 1 ч. 39 м.Битрейт : 847 Кбит/секШирина : 672 пикселяВысота : 512 пикселейСоотношение сторон : 4:3Частота кадров : 25,000 кадров/секЦветовое пространство : YUVСубдискретизация насыщенности : 4:2:0Битовая глубина : 8 битТип развёртки : ПрогрессивнаяМетод сжатия : С потерямиБит/(Пиксели*Кадры) : 0.099Размер потока : 601 Мбайт (86%)Библиотека кодирования : XviD 65
АудиоИдентификатор : 1Формат : MPEG AudioВерсия формата : Version 1Профиль формата : Layer 3Идентификатор кодека : 55Идентификатор кодека/Подсказка : MP3Продолжительность : 1 ч. 39 м.Вид битрейта : ПостоянныйБитрейт : 128 Кбит/секКаналы : 2 каналаЧастота : 48,0 КГцМетод сжатия : С потерямиРазмер потока : 90,7 Мбайт (13%)Выравнивание : Соединение по промежуткамПродолжительность промежутка : 40 мс. (1,00 видеокадр)Время предзагрузки промежутка : 504 мс.Библиотека кодирования : LAME3.99.5
Скриншот c названием фильма Скриншоты Время раздачи - по возможности.
Скачать

Скачать торрент!

Как скачивать? · Что такое торрент? · Рейтинг и ограничения

Сайт не распространяет и не хранит электронные версии произведений, а лишь предоставляет доступ к создаваемому пользователями каталогу ссылок на торрент-файлы, которые содержат только списки хеш-сумм

[Профиль] [ЛС]
Показать сообщения:    
Ответить на тему

Текущее время: Сегодня 20:21

Часовой пояс: GMT + 4



Вы не можете начинать темы
Вы не можете отвечать на сообщения
Вы не можете редактировать свои сообщения
Вы не можете удалять свои сообщения
Вы не можете голосовать в опросах
Вы не можете прикреплять файлы к сообщениям
Вы не можете скачивать файлы