Отважные сердца не разбиваются / Храбрых сердцем не сломить / Wild Hearts Can\'t Be Broken (Стив Майнер / Steve Miner) [1991, мелодрама, драма, семейный, WEB-DL 720p] Dub + AVO + Sub Rus, Eng + Original Eng

Ответить на тему
 
Автор Сообщение

user ®

Стаж: 7 лет 7 месяцев

Сообщений: 20008

Пост Пост: #1 от 04-Окт-2015 21:06

[Цитировать]

Отважные сердца не разбиваются / Храбрых сердцем не сломить / Wild Hearts Can't Be Broken
-Страна: США
Жанр: мелодрама, драма, семейный
Год выпуска: 1991
Продолжительность: 01:29:06-Перевод 1: Профессиональный (дублированный)
Перевод 2: Авторский (одноголосый, закадровый) Михалев-Cубтитры: русские, английские
Оригинальная аудиодорожка: английский-Режиссер: Стив Майнер / Steve Miner-В ролях: Габриель Анвар, Майкл Шоффлинг, Клифф Робертсон, Дилан Кассман, Кэтлин Йорк, Фрэнк Рензулли, Нэнси Мур Этчисон, Лиза Норман, Элизабет Хэйес-Описание:
Реальная история жизни Соноры Уэбстер. Сирота, пустившаяся в бега с бродячим аттракционом. У нее одна мечта — стать знаменитой ныряльщицей, и она делает все возможное, чтобы добиться успеха.-Сэмпл: Скачать-Тип релиза: WEB-DL 720p
Контейнер: MKV-Видео: 1280x720 (16:9); 4 034 Kbps; 23.976 fps; 0.183 bpp
Аудио 1: Russian; AC3; 48.0 KHz; 2ch; 192 Kbps Dub
Аудио 2: Russian; AC3; 48.0 KHz; 2ch; 192 Kbps AVO Михалев
Аудио 3: English; AAC; 48.0 KHz; 2ch; 160 Kbps
MediaInfo
Format : Matroska
Format version : Version 4 / Version 2
File size : 2.80 GiB
Duration : 1h 29mn
Overall bit rate : 4 500 Kbps
Encoded date : UTC 2015-07-31 06:00:32
Writing application : mkvmerge v8.1.0 ('Psychedelic Postcard') 64bit
Writing library : libebml v1.3.1 + libmatroska v1.4.2
Attachements : poster.jpg
DURATION : 01:29:05.440000000
NUMBER_OF_FRAMES : 167045
NUMBER_OF_BYTES : 128290560
_STATISTICS_WRITING_APP : mkvmerge v8.1.0 ('Psychedelic Postcard') 64bit
_STATISTICS_WRITING_DATE_UTC : 2015-07-31 06:00:32
_STATISTICS_TAGS : BPS DURATION NUMBER_OF_FRAMES NUMBER_OF_BYTES
Video
ID : 1
Format : AVC
Format/Info : Advanced Video Codec
Format profile : High@L3.1
Format settings, CABAC : No
Format settings, ReFrames : 2 frames
Format settings, GOP : N=1
Codec ID : V_MPEG4/ISO/AVC
Duration : 1h 29mn
Width : 1 280 pixels
Height : 720 pixels
Display aspect ratio : 16:9
Frame rate mode : Constant
Frame rate : 23.976 fps
Color space : YUV
Chroma subsampling : 4:2:0
Bit depth : 8 bits
Scan type : Progressive
Language : English
Default : Yes
Forced : No
Color primaries : BT.709
Transfer characteristics : BT.709
Matrix coefficients : BT.709
Audio #1
ID : 2
Format : AC-3
Format/Info : Audio Coding 3
Mode extension : CM (complete main)
Format settings, Endianness : Big
Codec ID : A_AC3
Duration : 1h 29mn
Bit rate mode : Constant
Bit rate : 192 Kbps
Channel(s) : 2 channels
Channel positions : Front: L R
Sampling rate : 48.0 KHz
Bit depth : 16 bits
Compression mode : Lossy
Stream size : 122 MiB (4%)
Title : Dub
Language : Russian
Default : Yes
Forced : No
Audio #2
ID : 3
Format : AC-3
Format/Info : Audio Coding 3
Mode extension : CM (complete main)
Format settings, Endianness : Big
Codec ID : A_AC3
Duration : 1h 29mn
Bit rate mode : Constant
Bit rate : 192 Kbps
Channel(s) : 2 channels
Channel positions : Front: L R
Sampling rate : 48.0 KHz
Bit depth : 16 bits
Compression mode : Lossy
Stream size : 122 MiB (4%)
Title : AVO Михалёв
Language : Russian
Default : No
Forced : No
Audio #3
ID : 4
Format : AAC
Format/Info : Advanced Audio Codec
Format profile : LC
Codec ID : A_AAC
Duration : 1h 29mn
Channel(s) : 2 channels
Channel positions : Front: L R
Sampling rate : 48.0 KHz
Compression mode : Lossy
Language : English
Default : No
Forced : No
Text #1
ID : 5
Format : UTF-8
Codec ID : S_TEXT/UTF8
Codec ID/Info : UTF-8 Plain Text
Language : Russian
Default : No
Forced : No
Text #2
ID : 6
Format : UTF-8
Codec ID : S_TEXT/UTF8
Codec ID/Info : UTF-8 Plain Text
Language : English
Default : No
Forced : No
Menu
00:00:00.000 : en:Haircuts And Horses
00:07:21.000 : en:Leaving
00:11:18.000 : en:The Carnival
00:21:30.000 : en:Dr. Carver's Farm
00:29:23.000 : en:The "Moving Mount"
00:37:15.000 : en:Marie Takes A Fall
00:40:30.000 : en:Sonora's First Dive
00:45:47.000 : en:Hard Times
00:59:57.000 : en:Atlantic City
01:07:25.000 : en:Blindness
01:11:44.000 : en:Marie Returns
01:19:58.000 : en:Wild Hearts
Скриншоты
Скачать

Скачать торрент!

Как скачивать? · Что такое торрент? · Рейтинг и ограничения

Сайт не распространяет и не хранит электронные версии произведений, а лишь предоставляет доступ к создаваемому пользователями каталогу ссылок на торрент-файлы, которые содержат только списки хеш-сумм

[Профиль] [ЛС]
Показать сообщения:    
Ответить на тему

Текущее время: Сегодня 22:36

Часовой пояс: GMT + 4



Вы не можете начинать темы
Вы не можете отвечать на сообщения
Вы не можете редактировать свои сообщения
Вы не можете удалять свои сообщения
Вы не можете голосовать в опросах
Вы не можете прикреплять файлы к сообщениям
Вы не можете скачивать файлы