Новичок / Underclassman (Маркос Сига / Marcos Siega) [2005, США, боевик, триллер, комедия, криминал, WEB-DL 1080p] Dub + MVO + Sub Rus, Eng + Original Eng

Ответить на тему
 
Автор Сообщение

user ®

Стаж: 7 лет 7 месяцев

Сообщений: 20008

Пост Пост: #1 от 04-Окт-2015 21:06

[Цитировать]

Новичок / Underclassman
Страна: США
Студия: Underclassman Films Ltd., Miramax, Tapestry Films
Жанр: боевик, триллер, комедия, криминал
Год выпуска: 2005
Продолжительность: 01:33:23
Перевод 1: Профессиональный (дублированный)
Перевод 1: Профессиональный (многоголосый закадровый)
Cубтитры: русские, английские
Оригинальная аудиодорожка: английский
Режиссер: Маркос Сига / Marcos Siega
В ролях: Ник Кэннон, Розелин Санчес, Шон Эшмор, Анджело Спиццирри, Келли Ху, Чич Марин, Хью Бонневиль, Николь Гарза, Джонни Льюис, Барт МакКарти, Дэвид Мичи, Сара Моррис и др.
Описание: Главный герой — 24-летний детектив — очень страдает и комплексует по поводу того, что выглядит он, как неоперившийся юнец. Поэтому и отношение к нему у всех — снисходительное. Но ведь парень считает, что достоин большего!
И вот молодому детективу выпадает дело, которое дает ему возможность использовать преимущества своей внешности, проявить профессионализм и доказать всем, что за юным лицом скрывается настоящая гроза преступного мира. Его внедряют в учебное заведение, в стенах которого гнездится преступная группировка!
II Сэмпл II IMDB II
Доп. информация:
За дубляж и субтитры спасибо Ygrek00
За многоголоску спасибо Art.
Тип релиза: WEB-DL 1080p
Контейнер: MKV
Видео: AVC / 1920x820 / 2.34:1 / 23.976fps / Bit rate 4431Kbps
Аудио 1: DTS / 48.0 KHz / 6ch. / 755kbps / rus / dub
Аудио 2: AC3 / 48.0 KHz / 2ch. / 192kbps / rus / mvo
Аудио 3: AC3 / 48.0 KHz / 6ch. / 384kbps / eng
Формат субтитров: softsub (SRT)
MediaInfo
Общее
Уникальный идентификатор : 231109239476276314920678352143493489285 (0xADDE053DBB2A9B64BFB781D7852DE285)
Полное имя : H:\!_Torrent\Underclassman.2005.WEB-DL.1080p.by_vedigo.mkv
Формат : Matroska
Версия формата : Version 4 / Version 2
Размер файла : 3,83 Гбайт
Продолжительность : 1 ч. 33 м.
Общий поток : 5874 Кбит/сек
Название фильма : Underclassman.2005.WEB-DL.1080p.by_vedigo.mkv
Дата кодирования : UTC 2015-10-03 22:46:37
Программа кодирования : mkvmerge v8.4.0 ('A better way to fly') 64bit
Библиотека кодирования : libebml v1.3.1 + libmatroska v1.4.2
DURATION : 01:33:20.928000000
NUMBER_OF_FRAMES : 175029
NUMBER_OF_BYTES : 134422272
_STATISTICS_WRITING_APP : mkvmerge v8.4.0 ('A better way to fly') 64bit
_STATISTICS_WRITING_DATE_UTC : 2015-10-03 22:46:37
_STATISTICS_TAGS : BPS DURATION NUMBER_OF_FRAMES NUMBER_OF_BYTES
Видео
Идентификатор : 1
Формат : AVC
Формат/Информация : Advanced Video Codec
Профиль формата : High@L4
Параметр CABAC формата : Да
Параметр ReFrames формата : 5 кадров
Идентификатор кодека : V_MPEG4/ISO/AVC
Продолжительность : 1 ч. 33 м.
Битрейт : 4427 Кбит/сек
Ширина : 1920 пикселей
Высота : 820 пикселей
Соотношение сторон : 2,35:1
Режим частоты кадров : Постоянный
Частота кадров : 23,976 кадра/сек
Цветовое пространство : YUV
Субдискретизация насыщенности : 4:2:0
Битовая глубина : 8 бит
Тип развёртки : Прогрессивная
Бит/(Пиксели*Кадры) : 0.117
Размер потока : 2,89 Гбайт (75%)
Заголовок : Underclassman.2005.WEB-DL.1080p.by_vedigo
Default : Да
Forced : Нет
Цветовой диапазон : Limited
Основные цвета : BT.709
Характеристики трансфера : BT.709
Коэффициенты матрицы : BT.709
Аудио #1
Идентификатор : 2
Формат : DTS
Формат/Информация : Digital Theater Systems
Режим : 16
Параметр Endianness формата : Big
Идентификатор кодека : A_DTS
Продолжительность : 1 ч. 33 м.
Вид битрейта : Постоянный
Битрейт : 755 Кбит/сек
Каналы : 6 каналов
Расположение каналов : Front: L C R, Side: L R, LFE
Частота : 48,0 КГц
Битовая глубина : 16 бит
Метод сжатия : С потерями
Размер потока : 504 Мбайт (13%)
Заголовок : Dub
Язык : Russian
Default : Да
Forced : Нет
Аудио #2
Идентификатор : 3
Формат : AC-3
Формат/Информация : Audio Coding 3
Расширение режима : CM (complete main)
Параметр Endianness формата : Big
Идентификатор кодека : A_AC3
Продолжительность : 1 ч. 33 м.
Вид битрейта : Постоянный
Битрейт : 192 Кбит/сек
Каналы : 2 канала
Расположение каналов : Front: L R
Частота : 48,0 КГц
Метод сжатия : С потерями
Размер потока : 128 Мбайт (3%)
Заголовок : MVO
Язык : Russian
Default : Нет
Forced : Нет
Аудио #3
Идентификатор : 4
Формат : AC-3
Формат/Информация : Audio Coding 3
Расширение режима : CM (complete main)
Параметр Endianness формата : Big
Идентификатор кодека : A_AC3
Продолжительность : 1 ч. 33 м.
Вид битрейта : Постоянный
Битрейт : 384 Кбит/сек
Каналы : 6 каналов
Расположение каналов : Front: L C R, Side: L R, LFE
Частота : 48,0 КГц
Метод сжатия : С потерями
Размер потока : 257 Мбайт (7%)
Заголовок : original
Язык : English
Default : Нет
Forced : Нет
Текст #1
Идентификатор : 5
Формат : UTF-8
Идентификатор кодека : S_TEXT/UTF8
Идентификатор кодека/Информация : UTF-8 Plain Text
Заголовок : subtitle rus
Язык : Russian
Default : Нет
Forced : Нет
Текст #2
Идентификатор : 6
Формат : UTF-8
Идентификатор кодека : S_TEXT/UTF8
Идентификатор кодека/Информация : UTF-8 Plain Text
Заголовок : subtitle eng
Язык : English
Default : Нет
Forced : Нет
Меню
00:00:00.000 : en:I'm LAPD
00:07:07.000 : en:Back To School
00:16:47.000 : en:Blacktop Battle
00:22:57.000 : en:Seaside Soiree
00:28:24.000 : en:Team Player
00:33:23.000 : en:Private Lessons
00:38:59.000 : en:Bliss
00:43:38.000 : en:Stolen Cars
00:49:27.000 : en:Saturday Night Soiree
00:53:55.000 : en:Did You Have Him?
00:58:00.000 : en:Blackmailed
01:06:59.000 : en:I'll Catch You Later
01:14:07.000 : en:Need A Lift?
01:17:31.000 : en:Long Beach Harbor
01:24:41.000 : en:Perfect Grammar
01:27:00.000 : en:End Credits
Скриншоты
Скачать

Скачать торрент!

Как скачивать? · Что такое торрент? · Рейтинг и ограничения

Сайт не распространяет и не хранит электронные версии произведений, а лишь предоставляет доступ к создаваемому пользователями каталогу ссылок на торрент-файлы, которые содержат только списки хеш-сумм

[Профиль] [ЛС]
Показать сообщения:    
Ответить на тему

Текущее время: Сегодня 09:47

Часовой пояс: GMT + 4



Вы не можете начинать темы
Вы не можете отвечать на сообщения
Вы не можете редактировать свои сообщения
Вы не можете удалять свои сообщения
Вы не можете голосовать в опросах
Вы не можете прикреплять файлы к сообщениям
Вы не можете скачивать файлы