Журнал Союзмультфильма № 2 / Чего Гитлер хочет / Бей фашистских пиратов / Бей врага на фронте и в тылу / Крепкое рукопожатие (Зинаида Брумберг, Александр Иванов, Валентина Брумберг, Ольга Ходатаева, Иван Иванов-Вано) [1941, агитационный, DVDRip]

Ответить на тему
 
Автор Сообщение

user ®

Стаж: 7 лет 7 месяцев

Сообщений: 20008

Пост Пост: #1 от 04-Окт-2015 02:30

[Цитировать]

Журнал Союзмультфильма № 2- Страна: СССР
Жанр: мультипликационный фильм-плакат
Продолжительность: 00:08:13
Год выпуска: 1941
Русские субтитры: нет-Режиссёры: Зинаида Брумберг, Александр Иванов, Валентина Брумберг, Ольга Ходатаева, Иван Иванов-Вано- | Релиз: -Описание: Фильм состоит из ряда сюжетов, объединенных темой неминуемой гибели фашизма, посягнувшего на Советский Союз.
1. Чего Гитлер хочет.
2. Бей фашистских пиратов.
3. Бей врага на фронте и в тылу.
4. Крепкое рукопожатие.-Качество: [url=http://***/forum/viewtopic.php?t=3055837]DVDRip[/url]
Формат: AVI
Видео: 640x480 (1.33:1), 25 fps, XviD MPEG-4 ~2123 kbps avg, 0.28 bit/pixel
Аудио: 48 kHz, AC3 Dolby Digital, 2/0 (L,R) ch, ~224 kbps
Субтитры: английские вшитые (hardsub)
MediaInfo
GeneralComplete name : Журнал Союзмультфильма №2.1941.XviD.AC3-rutracker.aviFormat : AVIFormat/Info : Audio Video InterleaveFile size : 139 MiBDuration : 8mn 13sOverall bit rate : 2 358 KbpsMovie name : Журнал Союзмультфильма №2.1941.XviD.AC3-rutrackerWriting application : VirtualDubMod 1.5.10.2 (build 2542/release)Comment : РГ Мультфильмы / ***
VideoID : 0Format : MPEG-4 VisualFormat profile : Advanced Simple@L5Format settings, BVOP : 2Format settings, QPel : NoFormat settings, GMC : No warppointsFormat settings, Matrix : CustomCodec ID : XVIDCodec ID/Hint : XviDDuration : 8mn 13sBit rate : 2 124 KbpsWidth : 640 pixelsHeight : 480 pixelsDisplay aspect ratio : 4:3Frame rate : 25.000 fpsColor space : YUVChroma subsampling : 4:2:0Bit depth : 8 bitsScan type : ProgressiveCompression mode : LossyBits/(Pixel*Frame) : 0.277Stream size : 125 MiB (90%)Writing library : XviD 65
AudioID : 1Format : AC-3Format/Info : Audio Coding 3Mode extension : CM (complete main)Format settings, Endianness : BigCodec ID : 2000Duration : 8mn 13sBit rate mode : ConstantBit rate : 224 KbpsChannel(s) : 2 channelsChannel positions : Front: L RSampling rate : 48.0 KHzCompression mode : LossyStream size : 13.2 MiB (10%)Alignment : Split accross interleavesInterleave, duration : 40 ms (1.00 video frame)Interleave, preload duration : 500 ms
Скриншоты
Скачать

Скачать торрент!

Как скачивать? · Что такое торрент? · Рейтинг и ограничения

Сайт не распространяет и не хранит электронные версии произведений, а лишь предоставляет доступ к создаваемому пользователями каталогу ссылок на торрент-файлы, которые содержат только списки хеш-сумм

[Профиль] [ЛС]
Показать сообщения:    
Ответить на тему

Текущее время: Сегодня 17:30

Часовой пояс: GMT + 4



Вы не можете начинать темы
Вы не можете отвечать на сообщения
Вы не можете редактировать свои сообщения
Вы не можете удалять свои сообщения
Вы не можете голосовать в опросах
Вы не можете прикреплять файлы к сообщениям
Вы не можете скачивать файлы