Консьерж / For Love or Money (Барри Зонненфельд / Barry Sonnenfeld) [1993, США, драма, мелодрама, комедия, Blu-ray Disc 1080p] [EUR] Dub + Original Eng + Sub Eng, Rus

Ответить на тему
 
Автор Сообщение

user ®

Стаж: 7 лет 7 месяцев

Сообщений: 20008

Пост Пост: #1 от 02-Окт-2015 19:33

[Цитировать]

Консьерж / For Love or Money
«He thought there was nothing more seductive than money. He was wrong»
Год выпуска: 1993
Страна: США
Производство: Universal Pictures
Жанр: Драма, мелодрама, комедия
Продолжительность: 01:35:10
Перевод: Профессиональный (дублированный)
Оригинальная аудиодорожка: Английский
Субтитры: Английские, арабские, китайские, чешские, датские, голландские, финские, французские, немецкие, греческие, хинди, венгерские, итальянские, японские, корейские, норвежские, польские, португальские, русские, испанские, шведские, тайские, турецкие
Режиссёр: Барри Зонненфельд
В ролях: Майкл Дж. Фокс, Габриель Анвар, Энтони Хиггинс, Боб Бэлабан, Майкл Такер, Айзек Мизрахи, Патрик Брин, Удо Кир, Саймон Джонс, Дайян Брилл и др.
Описание: У Дугласа, консьержа роскошной гостиницы, две мечты — заработать на собственный отель и жениться на красотке Энди. Щедрые чаевые от богатых клиентов помогут осуществить первую. А со второй проблема — как жениться на девушке, у которой уже есть жених, к тому же красивый и богатый?


Сэмпл
Качество: Blu-ray Disc 1080p
Формат: BDMV
Видео: MPEG-4 AVC: 32170 kbps / 1080p / 23.976 fps / 16:9
Аудио: English: DTS-HD MA / 5.1 / 48 kHz / 3776 kbps / 24-bit (DTS Core: 5.1 / 48 kHz / 1509 kbps / 24-bit) | Оригинальный
Аудио: French: DTS / 5.1 / 48 kHz / 768 kbps / 24-bit
Аудио: Polish: DTS / 5.1 / 48 kHz / 768 kbps / 24-bit
Аудио: German: DTS / 2.0 / 48 kHz / 768 kbps / 24-bit
Аудио: Italian: DTS / 2.0 / 48 kHz / 768 kbps / 24-bit
Аудио: Japanese: DTS / 2.0 / 48 kHz / 768 kbps / 24-bit
Аудио: Portuguese: DTS / 2.0 / 48 kHz / 448 kbps / 24-bit
Аудио: Russian: DTS / 2.0 / 48 kHz / 768 kbps / 24-bit | Дубляж
Аудио: Spanish: DTS / 2.0 / 48 kHz / 768 kbps / 24-bit
Аудио: Spanish: DTS / 2.0 / 48 kHz / 768 kbps / 24-bit
BDInfo
Disc Title: FOR_LOVE_OR_MONEYDisc Size: 33 904 737 542 bytesProtection: AACSBD-Java: YesBDInfo: 0.5.8
Notes:
BDINFO HOME: Cinema Squid http://www.cinemasquid.com/blu-ray/tools/bdinfo
INCLUDES FORUMS REPORT FOR: AVS Forum Blu-ray Audio and Video Specifications Thread http://www.avsforum.com/avs-vb/showthread.php?t=1155731
********************PLAYLIST: 00800.MPLS********************
Total   Video
Title                                                           Codec   Length  Movie Size      Disc Size       Bitrate Bitrate Main Audio Track                          Secondary Audio Track
-----                                                           ------  ------- --------------  --------------  ------- ------- ------------------                        ---------------------
00800.MPLS                                                      AVC     1:35:10 33 225 345 024  33 904 737 542  46.54   32.17   DTS-HD Master 5.1 3776Kbps (48kHz/24-bit)
DISC INFO:
Disc Title:     FOR_LOVE_OR_MONEY
Disc Size:      33 904 737 542 bytes
Protection:     AACS
BD-Java:        Yes
BDInfo:         0.5.8
PLAYLIST REPORT:
Name:                   00800.MPLS
Length:                 1:35:10.705 (h:m:s.ms)
Size:                   33 225 345 024 bytes
Total Bitrate:          46.54 Mbps
VIDEO:
Codec                   Bitrate             Description
-----                   -------             -----------
MPEG-4 AVC Video        32170 kbps          1080p / 23.976 fps / 16:9 / High Profile 4.1
AUDIO:
Codec                           Language        Bitrate         Description
-----                           --------        -------         -----------
DTS-HD Master Audio             English         3776 kbps       5.1 / 48 kHz / 3776 kbps / 24-bit (DTS Core: 5.1 / 48 kHz / 1509 kbps / 24-bit)
DTS Audio                       Spanish         768 kbps        2.0 / 48 kHz / 768 kbps / 24-bit
DTS Audio                       French          768 kbps        5.1 / 48 kHz / 768 kbps / 24-bit
DTS Audio                       Portuguese      448 kbps        2.0 / 48 kHz / 448 kbps / 24-bit
DTS Audio                       Spanish         768 kbps        2.0 / 48 kHz / 768 kbps / 24-bit
DTS Audio                       German          768 kbps        2.0 / 48 kHz / 768 kbps / 24-bit
DTS Audio                       Italian         768 kbps        2.0 / 48 kHz / 768 kbps / 24-bit
DTS Audio                       Japanese        768 kbps        2.0 / 48 kHz / 768 kbps / 24-bit
DTS Audio                       Polish          768 kbps        5.1 / 48 kHz / 768 kbps / 24-bit
DTS Audio                       Russian         768 kbps        2.0 / 48 kHz / 768 kbps / 24-bit
SUBTITLES:
Codec                           Language        Bitrate         Description
-----                           --------        -------         -----------
Presentation Graphics           English         51.563 kbps
Presentation Graphics           Spanish         32.841 kbps
Presentation Graphics           French          44.024 kbps
Presentation Graphics           Portuguese      31.198 kbps
Presentation Graphics           Spanish         42.457 kbps
Presentation Graphics           French          43.537 kbps
Presentation Graphics           German          46.863 kbps
Presentation Graphics           Italian         43.891 kbps
Presentation Graphics           Japanese        28.467 kbps
Presentation Graphics           Polish          40.549 kbps
Presentation Graphics           Russian         42.839 kbps
Presentation Graphics           Arabic          26.247 kbps
Presentation Graphics           Chinese         35.786 kbps
Presentation Graphics           Chinese         37.745 kbps
Presentation Graphics           Czech           41.874 kbps
Presentation Graphics           Danish          40.926 kbps
Presentation Graphics           Dutch           41.970 kbps
Presentation Graphics           Finnish         43.893 kbps
Presentation Graphics           Greek           48.005 kbps
Presentation Graphics           Hindi           36.300 kbps
Presentation Graphics           Hungarian       44.204 kbps
Presentation Graphics           Korean          31.712 kbps
Presentation Graphics           Norwegian       42.748 kbps
Presentation Graphics           Portuguese      46.430 kbps
Presentation Graphics           Swedish         42.297 kbps
Presentation Graphics           Thai            39.168 kbps
Presentation Graphics           Turkish         44.438 kbps
Presentation Graphics           Spanish         0.274 kbps
Presentation Graphics           Portuguese      0.366 kbps
Presentation Graphics           French          1.155 kbps
Presentation Graphics           German          1.318 kbps
Presentation Graphics           Japanese        0.135 kbps
FILES:
Name            Time In         Length          Size            Total Bitrate
----            -------         ------          ----            -------------
00800.M2TS      0:00:00.000     1:35:10.705     33 225 345 024  46 545
CHAPTERS:
Number          Time In         Length          Avg Video Rate  Max 1-Sec Rate  Max 1-Sec Time  Max 5-Sec Rate  Max 5-Sec Time  Max 10Sec Rate  Max 10Sec Time  Avg Frame Size  Max Frame Size  Max Frame Time
------          -------         ------          --------------  --------------  --------------  --------------  --------------  --------------  --------------  --------------  --------------  --------------
1               0:00:00.000     0:02:05.834     31 983 kbps     52 163 kbps     00:00:19.102    36 695 kbps     00:00:15.098    34 790 kbps     00:00:10.093    166 690 bytes   635 481 bytes   00:00:19.769
2               0:02:05.834     0:11:21.806     32 583 kbps     34 530 kbps     00:10:03.853    33 149 kbps     00:12:55.357    32 964 kbps     00:09:54.760    169 874 bytes   351 395 bytes   00:13:01.322
3               0:13:27.640     0:05:08.433     32 767 kbps     33 962 kbps     00:13:36.315    33 004 kbps     00:13:42.154    32 885 kbps     00:13:40.903    170 834 bytes   293 568 bytes   00:18:14.093
4               0:18:36.073     0:03:14.068     32 775 kbps     41 050 kbps     00:19:07.938    34 505 kbps     00:19:03.934    33 652 kbps     00:18:58.929    170 875 bytes   493 132 bytes   00:19:08.730
5               0:21:50.142     0:08:01.522     32 706 kbps     34 150 kbps     00:26:01.351    32 997 kbps     00:29:24.429    32 876 kbps     00:28:27.288    170 512 bytes   290 035 bytes   00:29:19.215
6               0:29:51.664     0:01:11.613     32 682 kbps     34 626 kbps     00:30:50.557    33 045 kbps     00:30:39.254    32 893 kbps     00:30:32.330    170 389 bytes   309 138 bytes   00:30:44.259
7               0:31:03.278     0:11:25.935     32 469 kbps     35 705 kbps     00:32:32.492    33 570 kbps     00:36:02.994    33 157 kbps     00:35:57.989    169 280 bytes   314 987 bytes   00:36:11.878
8               0:42:29.213     0:06:57.083     31 612 kbps     33 798 kbps     00:48:50.093    32 993 kbps     00:43:16.135    32 866 kbps     00:46:09.099    164 813 bytes   310 393 bytes   00:48:08.510
9               0:49:26.296     0:12:13.607     32 209 kbps     34 597 kbps     00:57:38.079    33 074 kbps     00:57:34.117    32 951 kbps     00:51:02.601    167 923 bytes   314 060 bytes   00:49:30.175
10              1:01:39.904     0:01:44.145     32 028 kbps     33 476 kbps     01:01:58.965    32 931 kbps     01:02:45.511    32 844 kbps     01:02:30.329    166 982 bytes   287 862 bytes   01:01:40.905
11              1:03:24.050     0:03:58.821     32 450 kbps     34 368 kbps     01:06:38.995    33 116 kbps     01:05:47.401    32 960 kbps     01:05:47.401    169 177 bytes   373 604 bytes   01:04:06.634
12              1:07:22.872     0:03:53.983     32 745 kbps     33 672 kbps     01:10:32.436    32 947 kbps     01:09:24.660    32 888 kbps     01:09:19.572    170 719 bytes   240 957 bytes   01:07:25.875
13              1:11:16.855     0:04:49.831     32 269 kbps     34 130 kbps     01:12:00.774    33 097 kbps     01:11:56.812    32 937 kbps     01:11:51.849    168 238 bytes   246 597 bytes   01:12:01.442
14              1:16:06.687     0:01:03.438     32 755 kbps     33 526 kbps     01:16:09.982    32 927 kbps     01:17:00.073    32 843 kbps     01:16:55.068    170 767 bytes   220 724 bytes   01:16:29.710
15              1:17:10.125     0:03:13.484     32 749 kbps     34 065 kbps     01:18:11.144    33 028 kbps     01:18:40.549    32 872 kbps     01:19:39.775    170 736 bytes   239 490 bytes   01:17:33.065
16              1:20:23.610     0:03:26.331     30 510 kbps     34 003 kbps     01:21:18.081    32 969 kbps     01:23:04.896    32 857 kbps     01:21:02.983    159 066 bytes   240 012 bytes   01:23:09.818
17              1:23:49.941     0:04:17.674     32 294 kbps     34 196 kbps     01:24:26.144    33 112 kbps     01:26:19.424    32 950 kbps     01:27:18.316    168 366 bytes   326 181 bytes   01:26:59.380
18              1:28:07.615     0:01:20.872     32 611 kbps     33 760 kbps     01:28:22.630    32 954 kbps     01:28:47.864    32 867 kbps     01:28:42.859    170 021 bytes   263 956 bytes   01:28:50.908
19              1:29:28.488     0:00:45.712     32 682 kbps     36 462 kbps     01:30:10.696    33 442 kbps     01:30:06.692    33 114 kbps     01:30:01.687    170 390 bytes   324 573 bytes   01:29:44.587
20              1:30:14.200     0:04:56.504     28 904 kbps     35 169 kbps     01:35:02.988    32 866 kbps     01:34:48.307    31 734 kbps     01:32:36.008    150 714 bytes   640 174 bytes   01:35:06.867
********************PLAYLIST: 00115.MPLS********************
Total   Video
Title                                                           Codec   Length  Movie Size      Disc Size       Bitrate Bitrate Main Audio Track                          Secondary Audio Track
-----                                                           ------  ------- --------------  --------------  ------- ------- ------------------                        ---------------------
00115.MPLS                                                      MPEG-2  0:01:00 2 420 736       33 904 737 542  0.32    0.13
DISC INFO:
Disc Title:     FOR_LOVE_OR_MONEY
Disc Size:      33 904 737 542 bytes
Protection:     AACS
BD-Java:        Yes
BDInfo:         0.5.8
PLAYLIST REPORT:
Name:                   00115.MPLS
Length:                 0:01:00.101 (h:m:s.ms)
Size:                   2 420 736 bytes
Total Bitrate:          0.32 Mbps
VIDEO:
Codec                   Bitrate             Description
-----                   -------             -----------
MPEG-2 Video            130 kbps            1080p / 23.976 fps / 16:9
FILES:
Name            Time In         Length          Size            Total Bitrate
----            -------         ------          ----            -------------
50365.M2TS      0:00:00.000     0:00:10.010     310 656         124
50365.M2TS      0:00:10.010     0:00:10.009     312 960         125
50365.M2TS      0:00:20.020     0:00:10.010     282 240         113
50365.M2TS      0:00:30.030     0:00:10.009     281 856         113
50365.M2TS      0:00:40.040     0:00:10.009     340 608         136
50365.M2TS      0:00:50.050     0:00:10.010     615 936         247
50365.M2TS      0:01:00.060     0:00:00.041     276 480         53 028
CHAPTERS:
Number          Time In         Length          Avg Video Rate  Max 1-Sec Rate  Max 1-Sec Time  Max 5-Sec Rate  Max 5-Sec Time  Max 10Sec Rate  Max 10Sec Time  Avg Frame Size  Max Frame Size  Max Frame Time
------          -------         ------          --------------  --------------  --------------  --------------  --------------  --------------  --------------  --------------  --------------  --------------
1               0:00:00.000     0:00:10.010     378 kbps        190 kbps        00:00:09.968    190 kbps        00:00:09.968    190 kbps        00:00:09.968    236 744 bytes   238 319 bytes   00:00:19.978
2               0:00:10.010     0:00:10.009     167 kbps        167 kbps        00:00:19.978    167 kbps        00:00:19.978    167 kbps        00:00:19.978    208 546 bytes   208 546 bytes   00:00:29.988
3               0:00:20.020     0:00:10.010     167 kbps        167 kbps        00:00:29.988    167 kbps        00:00:29.988    167 kbps        00:00:29.988    208 546 bytes   208 546 bytes   00:00:39.998
4               0:00:30.030     0:00:10.009     211 kbps        211 kbps        00:00:39.998    211 kbps        00:00:39.998    211 kbps        00:00:39.998    264 381 bytes   264 381 bytes   00:00:50.008
5               0:00:40.040     0:00:10.009     211 kbps        211 kbps        00:00:50.008    211 kbps        00:00:50.008    211 kbps        00:00:50.008    263 738 bytes   263 738 bytes   00:01:00.018
6               0:00:50.050     0:00:10.051     4 380 kbps      420 kbps        00:00:39.956    420 kbps        00:00:39.956    420 kbps        00:00:39.956    250 156 bytes   264 381 bytes   00:00:50.008

Скриншот с названием фильма

Скриншоты
Скачать

Скачать торрент!

Как скачивать? · Что такое торрент? · Рейтинг и ограничения

Сайт не распространяет и не хранит электронные версии произведений, а лишь предоставляет доступ к создаваемому пользователями каталогу ссылок на торрент-файлы, которые содержат только списки хеш-сумм

[Профиль] [ЛС]
Показать сообщения:    
Ответить на тему

Текущее время: Сегодня 03:09

Часовой пояс: GMT + 4



Вы не можете начинать темы
Вы не можете отвечать на сообщения
Вы не можете редактировать свои сообщения
Вы не можете удалять свои сообщения
Вы не можете голосовать в опросах
Вы не можете прикреплять файлы к сообщениям
Вы не можете скачивать файлы