Найти и обезвредить / Малышка / Бэйби / Baby (Нирадж Пандеу / Neeraj Pandey) [2015, Индия, Боевик, триллер, криминал, детектив, HDRip] MVO (SDI Media)

Ответить на тему
 
Автор Сообщение

user ®

Стаж: 12 лет

Сообщений: 15092

Пост Пост: #1 от 02-Окт-2015 13:21

[Цитировать]

Найти и обезвредить / Baby
Страна: Индия
Жанр: Боевик, триллер, криминал, детектив
Год выпуска: 2015
Продолжительность: 02:39:42
Перевод: Профессиональный (многоголосый закадровый) - SDI Media
Субтитры: Нет-Режиссер: Нирадж Пандеу / Neeraj Pandey-В ролях: Акшай Кумар, Таапси Панну, Анупам Кхер, Захари Соффин, Рана Даггубати, Дэнни Дензонгпа, Кэй Кэй Менон, Рашид Наз, Сушант Сингх, Каран Вахи-Описание: Секретная организация «Малышка» была создана в 2011 году из-за серий терактов, совершённых в Мумбаи 26 ноября 2008 года. Спец.группа включала в себя 12 высокопрофессиональных и обученных бойцов против терроризма. За 4 года существования организации, отряд предотвратил 24 крупных взрыва, поймал 13 самых разыскиваемых террористов и 8 боевиков. Основная сила отряда была направлена на подавление исламистских террористических организаций, таких как Лашкаре-Тайба и Индийские Моджахеды. Данный фильм повествует о последней секретной операции направленных против этих групп.- | --Релиз-группа:
Риппер, синхронизация аудио: soso4eg-Качество видео: HDRip (исх. BDRip 1080p)
Формат видео: AVI
Видео: 688x288 (2.39:1), 24.000 fps, XviD build 50 ~1169 kbps avg, 0.25 bit/pixel
Аудио: 44.100 kHz, MPEG Layer 3, 2 ch, ~128.00 kbps avg
-
Сэмпл / Sample- Скриншот с названием
-
Скриншоты
-
MI
General
Complete name : H:\[Релизы]\DVDRip\BABY.2015.P.HDRip.XviD.BwTorrents-soso4eg.avi
Format : AVI
Format/Info : Audio Video Interleave
File size : 1.46 GiB
Duration : 2h 39mn
Overall bit rate : 1 307 Kbps
Movie name : BABY.2015.P.HDRip.XviD.BwTorrents-soso4eg
Director : soso4eg
Writing application : VirtualDubMod 1.5.10.2 (build 2540/release)
Video
ID : 0
Format : MPEG-4 Visual
Format profile : Advanced Simple@L5
Format settings, BVOP : 1
Format settings, QPel : No
Format settings, GMC : No warppoints
Format settings, Matrix : Default (H.263)
Codec ID : XVID
Codec ID/Hint : XviD
Duration : 2h 39mn
Bit rate : 1 170 Kbps
Width : 688 pixels
Height : 288 pixels
Display aspect ratio : 2.40:1
Frame rate : 24.000 fps
Color space : YUV
Chroma subsampling : 4:2:0
Bit depth : 8 bits
Scan type : Progressive
Compression mode : Lossy
Bits/(Pixel*Frame) : 0.246
Stream size : 1.30 GiB (89%)
Writing library : XviD 1.2.1 (UTC 2008-12-04)
Audio
ID : 1
Format : MPEG Audio
Format version : Version 1
Format profile : Layer 3
Mode : Joint stereo
Mode extension : MS Stereo
Codec ID : 55
Codec ID/Hint : MP3
Duration : 2h 39mn
Bit rate mode : Constant
Bit rate : 128 Kbps
Channel(s) : 2 channels
Sampling rate : 48.0 KHz
Compression mode : Lossy
Stream size : 146 MiB (10%)
Alignment : Aligned on interleaves
Interleave, duration : 42 ms (1.00 video frame)
Interleave, preload duration : 504 ms
-
Скачать

Скачать торрент! Найти и обезвредить / Малышка / Бэйби / Baby (Нирадж Пандеу / Neeraj Pandey) [2015, Индия, Боевик, триллер, криминал, детектив, HDRip] MVO (SDI Media)

Как скачивать? · Что такое торрент? · Рейтинг и ограничения

Сайт не распространяет и не хранит электронные версии произведений, а лишь предоставляет доступ к создаваемому пользователями каталогу ссылок на торрент-файлы, которые содержат только списки хеш-сумм

[Профиль] [ЛС]
Показать сообщения:    
Ответить на тему

Текущее время: Сегодня 16:11

Часовой пояс: GMT + 4



Вы не можете начинать темы
Вы не можете отвечать на сообщения
Вы не можете редактировать свои сообщения
Вы не можете удалять свои сообщения
Вы не можете голосовать в опросах
Вы не можете прикреплять файлы к сообщениям
Вы не можете скачивать файлы