Шпионские страсти / Был Один Тигр / Ek Tha Tiger (Кабир Кхан / Kabir Khan) [2012, Индия, Триллер, HDRip] MVO (SDI Media)

Ответить на тему
 
Автор Сообщение

user ®

Стаж: 12 лет

Сообщений: 15092

Пост Пост: #1 от 02-Окт-2015 13:21

[Цитировать]

Шпионские страсти / Ek Tha Tiger
Страна: Индия
Жанр: Триллер
Год выпуска: 2012
Продолжительность: 02:13:00
Перевод: Профессиональный (многоголосый закадровый) - SDI Media (т/к Индия ТВ)
Субтитры: Нет-Режиссер: Кабир Кхан / Kabir Khan-В ролях: Салман Кхан, Катрина Каиф, Ранвир Шорей-Описание: В темном мире разведки и шпионажа вся информация охраняется во имя национальной безопасности. Но некоторые истории избегают эту яростную охрану. Истории, которые становятся легендами. Это одна из таких историй... История, которая потрясла сами основы этого темного мира. В окрестностях государственных учреждений Нью-Дели жил крепкий, красивый и таинственный холостяк, о котором даже его соседи ничего не знали. Всё потому, что он был лучшим шпионом Индии, офицер пункта исследований и анализа (RAW), внешней разведки Индии. Этот человек был известен даже в официальных коридорах как Тайгер (Салман Кхан). Тайгер отправляется на относительно простую и безопасную миссию в Дублин наблюдать за ученым индийского происхождения, который подозревается в обмене результатами исследований с пакистанской стороной. Тайгер пытается встретить этого ученого, но поиски не увенчались успехом. Он пытается подружиться со смотрителем дома ученого, Зоей (Катрина Каиф). Как только Тайгер начинает ближе узнавать Зою, он начинает открывать для себя, что такое человеческие чувства. Впервые в своей жизни Тайгер влюбляется... Далее следует тяжелый путь, который должен пройти Тайгер чтобы завоевать Зою, сражаясь с темный миром разведки и шпионажа, который запрещает своим солдатам влюбляться...- | --Качество видео: НDRip (исх. BDRip 1080p)
Формат видео: AVI
Видео: 720x304 (2.37:1), 24.000 fps, XviD build 50 ~1363 kbps avg, 0.26 bit/pixel
Аудио: 48 kHz, AC3 Dolby Digital, 2/0 (L,R) ch, ~192 kbps--Релиз-группа:
Риппер, синхронизация аудио: soso4eg
-
Сэмпл / Sample- Скриншот с названием
-
Скриншоты
-
MI
General
Complete name : H:\[Релизы]\DVDRip\BYL.ODIN.TIGR.2012.P.HDRip.XviD.BwTorrents-soso4eg.avi
Format : AVI
Format/Info : Audio Video Interleave
File size : 1.45 GiB
Duration : 2h 13mn
Overall bit rate : 1 565 Kbps
Movie name : Ek.Tha.Tiger.2012.P.HDRip.XviD.BwTorrents-soso4eg
Writing application : VirtualDubMod 1.5.10.2 (build 2540/release)
Video
ID : 0
Format : MPEG-4 Visual
Format profile : Advanced Simple@L5
Format settings, BVOP : 1
Format settings, QPel : No
Format settings, GMC : No warppoints
Format settings, Matrix : Default (H.263)
Codec ID : XVID
Codec ID/Hint : XviD
Duration : 2h 13mn
Bit rate : 1 364 Kbps
Width : 720 pixels
Height : 304 pixels
Display aspect ratio : 2.35:1
Frame rate : 24.000 fps
Color space : YUV
Chroma subsampling : 4:2:0
Bit depth : 8 bits
Scan type : Progressive
Compression mode : Lossy
Bits/(Pixel*Frame) : 0.260
Stream size : 1.27 GiB (87%)
Writing library : XviD 1.2.1 (UTC 2008-12-04)
Audio
ID : 1
Format : AC-3
Format/Info : Audio Coding 3
Mode extension : CM (complete main)
Format settings, Endianness : Big
Codec ID : 2000
Duration : 2h 13mn
Bit rate mode : Constant
Bit rate : 192 Kbps
Channel(s) : 2 channels
Channel positions : Front: L R
Sampling rate : 48.0 KHz
Bit depth : 16 bits
Compression mode : Lossy
Stream size : 183 MiB (12%)
Alignment : Split accross interleaves
Interleave, duration : 42 ms (1.00 video frame)
Interleave, preload duration : 500 ms
-
Скачать

Скачать торрент! Шпионские страсти / Был Один Тигр / Ek Tha Tiger (Кабир Кхан / Kabir Khan) [2012, Индия, Триллер, HDRip] MVO (SDI Media)

Как скачивать? · Что такое торрент? · Рейтинг и ограничения

Сайт не распространяет и не хранит электронные версии произведений, а лишь предоставляет доступ к создаваемому пользователями каталогу ссылок на торрент-файлы, которые содержат только списки хеш-сумм

[Профиль] [ЛС]
Показать сообщения:    
Ответить на тему

Текущее время: Сегодня 15:44

Часовой пояс: GMT + 4



Вы не можете начинать темы
Вы не можете отвечать на сообщения
Вы не можете редактировать свои сообщения
Вы не можете удалять свои сообщения
Вы не можете голосовать в опросах
Вы не можете прикреплять файлы к сообщениям
Вы не можете скачивать файлы